Брестская крепость / Крепость
Производство: Беларусьфильм, Централ Партнершип
Жанр: драма, военный
Год выпуска: 2010
Продолжительность: ~ 43:30
Субтитры: русские
Режиссёр: Александр Котт
В ролях: Алексей Копашов, Андрей Мерзликин, Павел Деревянко, Александр Коршунов, Геннадий Гарбук, Максим Костромыкин, Анна Цуканова-Котт, Сергей Цепов, Беник Аракелян, Михаил Павлик, Сергей Власов (II), Александр Сирин, Евгений Цыганов, Татьяна Камина, Вероника Никонова, Яна Есипович, Мадлен Джабраилова, Дмитрий Куличков, Александр Сапцов, Кирилл Болтаев, Олег Лопухов, Анатолий Кот, Нодар Джанелидзе, Максим Кречетов, Дмитрий Есеневич, Максим Литовченко, Валерий Иваков, Виктор Стрельченко, Матвей Шкуратов, Юрий Анпилогов, Евгений Харитонов (II), Антон Старовойтов, Ринат Ибрагимов, Павел Городницкий, Евгений Сангаджиев, Михаил Евланов, Илья Мозговой
Описание: Гиперреалистичная телеверсия фильма «Брестская крепость» рассказывает о героической обороне Брестской крепости, которая приняла на себя первый удар немецких захватчиков 22 июня 1941 года. С документальной точностью описываются события, происходившие в первые дни обороны. Фильм рассказывает о главных трёх очагах сопротивления, возглавляемых командиром полка Гавриловым, полковым комиссаром Фоминым и начальником 9-ой погранзаставы Кижеватовым. Линией, связывающей всех героев, является история Сашки Акимова. Именно его глазами мы видим события фильма. Прототипом Сашки был пятнадцатилетний Петя Клыпа, один из немногих выживших защитников Брестской крепости. Главная идея картины лучше всего сформулирована в надписи, обнаруженной на стене одного из казематов "УМИРАЮ, НО НЕ СДАЮСЬ".
Доп. информация:
Автор релиза -
Исходник - моя запись с т/к Первый HD
Авторы субтитров - редакторы "Первого канала" (А.КНЯЗЕВА, К.ФРЕГЕР, И.КИРИК, А.ГОЛУБКОВА)
Рекламы нет!
Все раздачи сериала




Качество видео: HDTV 1080p
Формат видео: MKV
Видео кодек: H.264
Аудио кодек: MP2
Видео: 1920x1080 (16:9), 25.000 fps, ~6000 kbps, ~0.116 bit/pixel
Аудио: 48000 Гц, 2 ch, ~192 kbps

MediaInfo

Общее
Уникальный идентификатор : 74757953714432764348554184285667478948 (0x383DDBB0A25B627304732980E0C04DA4)
Полное имя : D:\Крепость.2010.HDTV.1080p-ylnian\01.Крепость.2010.HDTV.1080p-ylnian.mkv
Формат : Matroska
Версия формата : Version 4
Размер файла : 1,90 Гбайт
Продолжительность : 44 м. 3 с.
Режим общего битрейта : Переменный
Общий поток : 6 186 Кбит/сек
Дата кодирования : UTC 2022-06-23 10:45:54
Программа кодирования : mkvmerge v68.0.0 ('The Curtain') 64-bit
Библиотека кодирования : libebml v1.4.2 + libmatroska v1.6.4
Видео
Идентификатор : 1
Формат : AVC
Формат/Информация : Advanced Video Codec
Профиль формата : [email protected]
Настройки формата : CABAC / 1 Ref Frames
Параметр CABAC формата : Да
Параметр RefFrames формата : 1 кадр
Идентификатор кодека : V_MPEG4/ISO/AVC
Продолжительность : 44 м. 3 с.
Вид битрейта : Переменный
Битрейт : 5 992 Кбит/сек
Максимальный битрейт : 8 800 Кбит/сек
Ширина : 1 920 пикселей
Высота : 1 080 пикселей
Соотношение сторон : 16:9
Режим частоты кадров : Постоянный
Частота кадров : 25,000 кадров/сек
Цветовое пространство : YUV
Субдискретизация насыщенности : 4:2:0
Битовая глубина : 8 бит
Тип развёртки : Прогрессивная
Бит/(Пиксели*Кадры) : 0.116
Размер потока : 1,84 Гбайт (97%)
Язык : Russian
Default : Да
Forced : Нет
Аудио
Идентификатор : 2
Формат : MPEG Audio
Версия формата : Version 1
Профиль формата : Layer 2
Идентификатор кодека : A_MPEG/L2
Идентификатор кодека/Подсказка : MP2
Продолжительность : 44 м. 3 с.
Вид битрейта : Постоянный
Битрейт : 192 Кбит/сек
Каналы : 2 канала
Частота : 48,0 КГц
Частота кадров : 41,667 кадра/сек (1152 SPF)
Метод сжатия : С потерями
Размер потока : 60,5 Мбайт (3%)
Язык : Russian
Default : Да
Forced : Нет
Текст
Идентификатор : 3
Формат : UTF-8
Идентификатор кодека : S_TEXT/UTF8
Идентификатор кодека/Информация : UTF-8 Plain Text
Продолжительность : 44 м. 2 с.
Битрейт : 67 бит/сек
Count of elements : 354
Размер потока : 21,8 Кбайт (0%)
Язык : Russian
Default : Нет
Forced : Нет
Общее
Уникальный идентификатор : 317139484209191323127583425133465309108 (0xEE96D7C9836E20520B3F6CFCCEB80FB4)
Полное имя : D:\Крепость.2010.HDTV.1080p-ylnian\02.Крепость.2010.HDTV.1080p-ylnian.mkv
Формат : Matroska
Версия формата : Version 4
Размер файла : 1,85 Гбайт
Продолжительность : 42 м. 29 с.
Режим общего битрейта : Переменный
Общий поток : 6 231 Кбит/сек
Дата кодирования : UTC 2022-06-23 10:49:10
Программа кодирования : mkvmerge v68.0.0 ('The Curtain') 64-bit
Библиотека кодирования : libebml v1.4.2 + libmatroska v1.6.4
Видео
Идентификатор : 1
Формат : AVC
Формат/Информация : Advanced Video Codec
Профиль формата : [email protected]
Настройки формата : CABAC / 1 Ref Frames
Параметр CABAC формата : Да
Параметр RefFrames формата : 1 кадр
Идентификатор кодека : V_MPEG4/ISO/AVC
Продолжительность : 42 м. 29 с.
Вид битрейта : Переменный
Битрейт : 6 036 Кбит/сек
Максимальный битрейт : 8 800 Кбит/сек
Ширина : 1 920 пикселей
Высота : 1 080 пикселей
Соотношение сторон : 16:9
Режим частоты кадров : Постоянный
Частота кадров : 25,000 кадров/сек
Цветовое пространство : YUV
Субдискретизация насыщенности : 4:2:0
Битовая глубина : 8 бит
Тип развёртки : Прогрессивная
Бит/(Пиксели*Кадры) : 0.116
Размер потока : 1,79 Гбайт (97%)
Язык : Russian
Default : Да
Forced : Нет
Аудио
Идентификатор : 2
Формат : MPEG Audio
Версия формата : Version 1
Профиль формата : Layer 2
Идентификатор кодека : A_MPEG/L2
Идентификатор кодека/Подсказка : MP2
Продолжительность : 42 м. 29 с.
Вид битрейта : Постоянный
Битрейт : 192 Кбит/сек
Каналы : 2 канала
Частота : 48,0 КГц
Частота кадров : 41,667 кадра/сек (1152 SPF)
Метод сжатия : С потерями
Размер потока : 58,3 Мбайт (3%)
Язык : Russian
Default : Да
Forced : Нет
Текст
Идентификатор : 3
Формат : UTF-8
Идентификатор кодека : S_TEXT/UTF8
Идентификатор кодека/Информация : UTF-8 Plain Text
Продолжительность : 42 м. 16 с.
Битрейт : 52 бит/сек
Count of elements : 281
Размер потока : 16,1 Кбайт (0%)
Язык : Russian
Default : Нет
Forced : Нет

Скриншоты