Жизнь продолжается
Lâcher prise- Год выпуска: 2020
Страна: Канада
Жанр: трагикомедия
Продолжительность: 00:20:00Перевод: Субтитры (перевод Е.Маньен, компания Hiventy)Режиссёр: Себастьян Ганье
В ролях: Софи Кадьё (Valérie), Антуан Аршамбо (Thomas), Сильви Леонар (Madeleine), Симон Лакруа (Éric), Эрик Полю (Kevin), Эрик Бернье (Stéphane Labelle), Жан-Моиз Мартен (Policier Simon Phaneuf), Жильдор Руа (Gilles Danault)
Описание: Дисциплинированная, организованная, гиперактивная, профессионал своего дела, разведенная мать маленького мальчика, который наполняет ее жизнь радостью, и несмотря на то, что ее бывший муж теперь живет с любовником, Валери поддерживает с ними приятельские отношения, время от времени требуя помощи в воспитании ребенка...
Доп. информация: TV5MONDE Europe IPTV
Награда: премия "Жемо" 2020 Академии кино и телевидения Канады лучшему режиссеру комедийного сериала.
Качество: DVB
Формат: MKV
Видео: MPEG Video 2, [email protected] (16:9), 25 fps, ~3624 kbps avg, 0.349 bit/pixel
Аудио: MPEG Audio 2, 2 ch, 48 kHz, 192 kbps - французский
Субтитры: русские - hardsub (неотключаемые)
Реклама: отсутствует

Список серий

01. С того дня как мы встретились / C'est commence depuis le jour ou on s'est rencontres (2019)
02. Я голодна! / Je mangerais le sofa! (2019)
03. И слона можно съесть по кусочку / Un elephant, ca se mange une bouchee a la fois (2019)
04. Я могла бы написать отличную нордическую сагу / J'aurais pu ecrire une grande saga nordique (2019)
05. Вы покупаете зубной суп / Tu te magasines une soupe aux dents (2019)
06. Я не оставляла слона в комнате / C'est pas moi qui a mis l'éléphant dans la pièce (2019)
07. Эмбарго / Embargo (2019)
08. "Я потеряла своего ребенка" / "I lost my baby" (2019)
09. Миру - мир / La paix dans le monde pis toute la patente (2019)
10. Налегке / Voyager léger (2019)
11. Смотрите, что я сделала / Voir que j'ai fait exprès (2019)
12. Точка равновесия, Часть 1 / Le point d'équilibre - Partie 1 (2019)
13. Точка равновесия, Часть 2 / Le point d'équilibre - Partie 2 (2019)

MediaInfo

General
Unique ID : 323748705055935787499450240944206225119 (0xF38FBB888D8A73D969C1D4BAA38B9EDF)
Complete name : [apreder]Lacher_prise_s.4_ep.01(2019)DVB.mkv
Format : Matroska
Format version : Version 4
File size : 580 MiB
Duration : 20 min 49 s
Overall bit rate mode : Variable
Overall bit rate : 3 893 kb/s
Movie name : Lвcher prise
Released date : 2020-01-06
Encoded date : UTC 2020-11-22 07:25:36
Writing application : mkvmerge v51.0.0 ('I Wish') 64-bit
Writing library : libebml v1.4.0 + libmatroska v1.6.2
Cover : Yes
Attachments : cover.jpg / small_cover.jpg
ACTOR : Sophie Cadieux, Sylvie Leonard, Gildor Roy
DIRECTOR : Sebastien Gagnу
GENRE : Comedy, Drama
IMDB : tt11593168
KEYWORDS : rutracker.org
LAW_RATING : 16+
SUMMARY : s.4, ep.01 C'est commence depuis le jour oщ on s'est rencontres
Video
ID : 1
Format : MPEG Video
Format version : Version 2
Format profile : [email protected]
Format settings : BVOP
Format settings, BVOP : Yes
Format settings, Matrix : Default
Format settings, GOP : M=4, N=12
Format settings, picture structure : Frame
Codec ID : V_MPEG2
Codec ID/Info : MPEG 1 or 2 Video
Duration : 20 min 49 s
Bit rate mode : Variable
Bit rate : 3 624 kb/s
Maximum bit rate : 7 000 kb/s
Width : 720 pixels
Height : 576 pixels
Display aspect ratio : 16:9
Frame rate mode : Constant
Frame rate : 25.000 FPS
Standard : PAL
Color space : YUV
Chroma subsampling : 4:2:0
Bit depth : 8 bits
Scan type : Interlaced
Scan order : Top Field First
Compression mode : Lossy
Bits/(Pixel*Frame) : 0.349
Time code of first frame : 00:00:00:00
Time code source : Group of pictures header
GOP, Open/Closed : Open
GOP, Open/Closed of first frame : Closed
Stream size : 540 MiB (93%)
Default : Yes
Forced : No
Audio
ID : 2
Format : MPEG Audio
Format version : Version 1
Format profile : Layer 2
Codec ID : A_MPEG/L2
Codec ID/Hint : MP2
Duration : 20 min 49 s
Bit rate mode : Constant
Bit rate : 192 kb/s
Channel(s) : 2 channels
Sampling rate : 48.0 kHz
Compression mode : Lossy
Stream size : 28.6 MiB (5%)
Language : French
Default : Yes
Forced : No

Скриншоты


Резервные скриншоты


-

Внимание! Раздача ведётся путём добавления новых выпусков

Внимание! Раздача ведётся путём добавления новых выпусков; при каждом добавлении создаётся новый торрент. Чтобы начать докачку нового выпуска, пользователям необходимо сделать следующее:
(1) остановить скачивание,
(2) удалить старый торрент у себя из клиента (старые серии удалять не надо),
(3) скачать новый торрент и запустить его у себя в клиенте вместо старого, при этом указать клиенту путь в старую папку куда и должно происходить скачивание новых выпусков.
Ваш клиент при этом должен произвести хеширование (проверку) старой папки (если не производит сам - помогите ему сделать это). В результате он будет докачивать только те выпуски, которых у Вас ещё нет. Старые выпуски при этом не удаляются, а продолжают раздаваться!
Eсли Вы уже удалили старые выпуски, то предотвратить их повторную закачку можно, сняв галочки в соответствующих местах при запуске нового торрента. По возможности, желательно не удалять старые выпуски как можно дольше, чтобы релизёр не только продолжал раздавать старые выпуски, но и смог сконцентрироваться на новых.
- [5'069]