Мультфильмы Веселые мелодии / Looney Tunes Cartoons
Страна: США
Жанр: Мультипликация
Продолжительность: ~00:11:00
Год выпуска: 2021
Перевод: Профессиональный (дублированный)
Русские субтитры: есть-Режиссёр: Пит Браунгардт / Pete Browngardt
Роли озвучивали: Эрик Бауза, Джефф Бергман, Боб Берген, Фред Татаскьоре, Майкл Руокко, Канди Майло-Описание: Ребята, вы слышали? Ваши любимые персонажи Looney Tunes снова в действии! Абсолютно новые мультфильмы Looney Tunes содержат обновленные истории нового тысячелетия - и не только! Вернемся к старым трюкам Багз Банни, Даффи Дак, Порки Пиг и другим известным персонажам Looney Tunes, которые обещают радовать зрителей своими сумасшедшими приключениями, комедией фарса и сумасбродной энергией. Готовьтесь повеселиться - вот и все, ребята!-Релиз от -
СПАСИБО:Alexey17, за предоставленный материал.-Качество: WEB-DLRip 1080p
Формат: MKV
Видео: AVC, 1920x1080 (16:9), 23.976 fps, 8250 Кбит/сек (0.166 bit/pixel)
Аудио 1: AC-3, 48,0 КГц, 2 ch, 192 Кбит/сек, CBR (Russian)
Аудио 2: AC-3, 48,0 КГц, 6 ch, 384 Кбит/сек, CBR (English)
Субтитры: English, Russian (на непереведенные места)
Семпл: Забираем тут

Список эпизодов:

1a "Sam-merica"
1b "Put the Cat Out - Door Spin"
1c "BBQ Bandit"
2a "Happy Birdy to You"
2b "Daffy Psychic: New Love"
2c "Spring Forward, Fall Flat"
3a "Frame the Feline"
3b "Daffy Traffic Cop Stop: Boating License"
3c "Unlucky Strikes"
4a "Cro-Mag Numb Skulls"
4b "Trophy Hunter"
5a "Bathy Daffy"
5b "End of the Leash: Bullseye Painting"
5c "Rabbit Sandwich Maker"
5d "Put the Cat Out: Window"
6a "Pardon the Garden"
6b "Put the Cat Out: Flat on the Door"
6c "Downward Duck"
7a "Lesson Plan 9 from Outer Space"
7b "Balloon Salesman: Baboon"
7c "Portal Kombat"
8a "Virtual Mortality"
8b "Daffy Traffic Cop Stop: Lions"
8c "Miner Threat"
9a "Fowl Ploy"
9b "Sword Loser"

Подробные технические данные

Общее
Уникальный идентификатор : 238045163052930588905498054468549784487 (0xB315D4ACF36079D8A3E756E756B8B3A7)
Полное имя : Looney Tunes Cartoons S03 1080p HMAX WEBRip\Looney.Tunes.Cartoons.S03E01.1080p.HMAX.WEB-DL.Rus.Eng.mkv
Формат : Matroska
Версия формата : Version 4
Размер файла : 825 Мбайт
Продолжительность : 13 м. 4 с.
Режим общего битрейта : Переменный
Общий поток : 8826 Кбит/сек
Дата кодирования : UTC 2022-06-18 12:04:57
Программа кодирования : mkvmerge v6.6.0 ('The Edge Of The In Between') built on Dec 1 2013 17:55:00
Библиотека кодирования : libebml v1.3.0 + libmatroska v1.4.1
Видео
Идентификатор : 1
Формат : AVC
Формат/Информация : Advanced Video Codec
Профиль формата : [email protected]
Настройки формата : CABAC / 4 Ref Frames
Параметр CABAC формата : Да
Параметр RefFrames формата : 4 кадра
Идентификатор кодека : V_MPEG4/ISO/AVC
Продолжительность : 13 м. 4 с.
Вид битрейта : Переменный
Битрейт : 8250 Кбит/сек
Максимальный битрейт : 12,4 Мбит/сек
Ширина : 1920 пикселей
Высота : 1080 пикселей
Соотношение сторон : 16:9
Режим частоты кадров : Постоянный
Частота кадров : 23,976 (24000/1001) кадра/сек
Цветовое пространство : YUV
Субдискретизация насыщенности : 4:2:0
Битовая глубина : 8 бит
Тип развёртки : Прогрессивная
Бит/(Пиксели*Кадры) : 0.166
Размер потока : 755 Мбайт (91%)
Библиотека кодирования : x264 core 157 r2965 861cec4
Настройки программы : cabac=1 / ref=4 / deblock=1:0:0 / analyse=0x3:0x113 / me=hex / subme=7 / psy=1 / psy_rd=1.00:0.00 / mixed_ref=1 / me_range=16 / chroma_me=1 / trellis=1 / 8x8dct=1 / cqm=0 / deadzone=21,11 / fast_pskip=1 / chroma_qp_offset=-2 / threads=34 / lookahead_threads=5 / sliced_threads=0 / nr=0 / decimate=1 / interlaced=0 / bluray_compat=0 / constrained_intra=0 / bframes=3 / b_pyramid=2 / b_adapt=1 / b_bias=0 / direct=1 / weightb=1 / open_gop=0 / weightp=2 / keyint=96 / keyint_min=96 / scenecut=40 / intra_refresh=0 / rc_lookahead=40 / rc=2pass / mbtree=1 / bitrate=8250 / ratetol=1.0 / qcomp=0.60 / qpmin=0 / qpmax=69 / qpstep=4 / cplxblur=20.0 / qblur=0.5 / vbv_maxrate=12375 / vbv_bufsize=6187 / nal_hrd=vbr / filler=0 / ip_ratio=1.40 / aq=1:1.00
Default : Да
Forced : Нет
Цветовой диапазон : Limited
Основные цвета : BT.709
Характеристики трансфера : BT.709
Коэффициенты матрицы : BT.709
Аудио #1
Идентификатор : 2
Формат : AC-3
Формат/Информация : Audio Coding 3
Коммерческое название : Dolby Digital
Идентификатор кодека : A_AC3
Продолжительность : 13 м. 4 с.
Вид битрейта : Постоянный
Битрейт : 192 Кбит/сек
Каналы : 2 канала
Channel layout : L R
Частота : 48,0 КГц
Частота кадров : 31,250 кадров/сек (1536 SPF)
Битовая глубина : 16 бит
Метод сжатия : С потерями
Размер потока : 17,9 Мбайт (2%)
Язык : Russian
ServiceKind/String : Complete Main
Default : Да
Forced : Нет
Аудио #2
Идентификатор : 3
Формат : AC-3
Формат/Информация : Audio Coding 3
Коммерческое название : Dolby Digital
Идентификатор кодека : A_AC3
Продолжительность : 13 м. 4 с.
Вид битрейта : Постоянный
Битрейт : 384 Кбит/сек
Каналы : 6 каналов
Channel layout : L R C LFE Ls Rs
Частота : 48,0 КГц
Частота кадров : 31,250 кадров/сек (1536 SPF)
Битовая глубина : 16 бит
Метод сжатия : С потерями
Размер потока : 35,9 Мбайт (4%)
Язык : English
ServiceKind/String : Complete Main
Default : Нет
Forced : Нет
Текст
Идентификатор : 4
Формат : UTF-8
Идентификатор кодека : S_TEXT/UTF8
Идентификатор кодека/Информация : UTF-8 Plain Text
Язык : English
Default : Нет
Forced : Нет

Скриншоты