Без любви / Without Love
Страна: США
Студия: Metro-Goldwyn-Mayer (MGM)
Жанр: романтическая комедия
Год выпуска: 1945
Продолжительность: 01:50:31
Перевод: Одноголосый закадровый Алексей Яковлев
Субтитры: английские SDH
Оригинальная аудиодорожка: английский
Режиссер: Харольд С. Буке / Harold S. Bucquet
В ролях: Спенсер Трэйси, Кэтрин Хепберн, Люсиль Болл, Кинен Уинн, Карл Эсмонд, Патриша Морисон, Феликс Брессарт, Эмили Мэсси, Глория Грэм, Джордж Дэвис и др.
Описание: Ученый Пэт Джеймисон работает на правительство. Единственная проблема, с которой он сталкивается, это отсутствие помещения, в котором он мог бы проводить свои исследования. И вот совершенно случайно Пэт знакомится с одинокой вдовой Джейми Роуэн, у которой в доме пустует подвал. Движимая патриотическими чувствами, Джейми, которая потеряла уже всякую надежду выйти замуж по любви, соглашается на брак с эксцентричным ученым.
-
Сэмпл IMDB Кинопоиск
-
Доп. информация:
Большое Спасибо всем, кто принял участие в появлении озвучки к этому фильму:
Магда, Lafajet, jasenka, елена 22, yanaelisa, old76, atomic dragonfly, surzhoks, leoder, Wrobel, voostorg, HippopotamusIV, GalaUkr, Ugo927, cementit, mumzik69, борюська

Тип релиза: BDRemux 1080p
Контейнер: MKV
Видео: AVC / 1920x1080 / 16:9 / 23.976 fps / 34999 Kbps / [email protected]
Аудио 1 Rus: DTS-HD MA / 48.0 KHz / 2.0 / 1920 kbps / 24 bit (DTS Core 48.0 KHz / 2.0 / 1509 kbps / 24 bit)
Аудио 2 Eng: DTS-HD MA / 48.0 KHz / 2.0 / 1877 kbps / 24 bit (DTS Core 48.0 KHz / 2.0 / 1509 kbps / 24 bit)
Формат субтитров: softsub (SRT)

MediaInfo

General
Unique ID : 223475489357742491969442240586396522803 (0xA81FD04D45750D3D41ADBCA165D0D933)
Complete name : F:\_Torrent\porvaliparus\Without.Love.1945.BDRemux.1080p.mkv
Format : Matroska
Format version : Version 4 / Version 2
File size : 29.9 GiB
Duration : 1 h 50 min
Overall bit rate mode : Variable
Overall bit rate : 38.7 Mb/s
Movie name : Without.Love.1945.BDRemux.1080p-porvaliparus
Encoded date : UTC 2021-02-23 00:11:42
Writing application : mkvmerge v53.0.0 ('Fool's Gold') 64-bit
Writing library : libebml v1.4.1 + libmatroska v1.6.2
Cover : Yes
Attachments : Cover.jpg
Video
ID : 1
Format : AVC
Format/Info : Advanced Video Codec
Format profile : [email protected]
Format settings, CABAC : Yes
Format settings, ReFrames : 4 frames
Codec ID : V_MPEG4/ISO/AVC
Duration : 1 h 50 min
Bit rate mode : Variable
Bit rate : 34.9 Mb/s
Maximum bit rate : 38.0 Mb/s
Width : 1 920 pixels
Height : 1 080 pixels
Display aspect ratio : 16:9
Frame rate mode : Constant
Frame rate : 23.976 (24000/1001) FPS
Color space : YUV
Chroma subsampling : 4:2:0
Bit depth : 8 bits
Scan type : Progressive
Bits/(Pixel*Frame) : 0.702
Stream size : 26.9 GiB (90%)
Title : Without.Love.1945.BDRemux.1080p
Default : Yes
Forced : No
Audio #1
ID : 2
Format : DTS
Format/Info : Digital Theater Systems
Format profile : MA / Core
Mode : 16
Format settings, Endianness : Big
Codec ID : A_DTS
Duration : 1 h 50 min
Bit rate mode : Variable / Constant
Bit rate : 1 920 kb/s / 1 509 kb/s
Channel(s) : 2 channels
Channel positions : Front: L R
Sampling rate : 48.0 kHz
Frame rate : 93.750 FPS (512 spf)
Bit depth : 24 bits
Compression mode : Lossless / Lossy
Stream size : 1.45 GiB (5%)
Title : VO [Алексей Яковлев]
Language : Russian
Default : Yes
Forced : No
Audio #2
ID : 3
Format : DTS
Format/Info : Digital Theater Systems
Format profile : MA / Core
Mode : 16
Format settings, Endianness : Big
Codec ID : A_DTS
Duration : 1 h 50 min
Bit rate mode : Variable / Constant
Bit rate : 1 877 kb/s / 1 509 kb/s
Channel(s) : 2 channels
Channel positions : Front: L R
Sampling rate : 48.0 kHz
Frame rate : 93.750 FPS (512 spf)
Bit depth : 24 bits
Compression mode : Lossless / Lossy
Stream size : 1.45 GiB (5%)
Language : English
Default : No
Forced : No
Text #1
ID : 4
Format : UTF-8
Codec ID : S_TEXT/UTF8
Codec ID/Info : UTF-8 Plain Text
Duration : 1 h 50 min
Bit rate : 91 b/s
Count of elements : 2027
Stream size : 73.6 KiB (0%)
Title : SDH
Language : English
Default : No
Forced : No
Text #2
ID : 5
Format : PGS
Codec ID : S_HDMV/PGS
Codec ID/Info : Picture based subtitle format used on BDs/HD-DVDs
Duration : 1 h 50 min
Bit rate : 48.7 kb/s
Count of elements : 4054
Stream size : 38.4 MiB (0%)
Title : SDH
Language : English
Default : No
Forced : No
Menu
00:00:00.000 : en:01
00:01:33.343 : en:02
00:05:13.897 : en:03
00:09:31.946 : en:04
00:13:56.461 : en:05
00:17:49.735 : en:06
00:21:34.710 : en:07
00:25:14.012 : en:08
00:31:39.272 : en:09
00:34:38.660 : en:10
00:39:51.598 : en:11
00:42:42.435 : en:12
00:47:57.208 : en:13
00:54:25.179 : en:14
00:57:38.872 : en:15
01:01:15.672 : en:16
01:05:44.274 : en:17
01:08:51.669 : en:18
01:12:03.861 : en:19
01:15:31.068 : en:20
01:19:23.759 : en:21
01:21:37.351 : en:22
01:26:21.301 : en:23
01:30:00.520 : en:24
01:33:42.116 : en:25
01:38:21.729 : en:26
01:42:05.244 : en:27
01:44:19.378 : en:28
01:47:45.376 : en:29
01:50:20.072 : en:30

Скриншоты


Информация об исходнике

Disc Title: WITHOUT_LOVE
Disc Size: 39,208,008,108 bytes
Protection: AACS
Playlist: 00000.MPLS
Size: 32,198,885,376 bytes
Length: 1:50:30.665
Total Bitrate: 38.85 Mbps
Video: MPEG-4 AVC Video / 34999 kbps / 1080p / 23.976 fps / 16:9 / High Profile 4.1
Audio: English / DTS-HD Master Audio / 2.0 / 48 kHz / 1877 kbps / 24-bit (DTS Core: 2.0 / 48 kHz / 1509 kbps / 24-bit)
Subtitle: English / 48.579 kbps