Эвтаназия
Страна: Россия
Жанр: драма
Год выпуска: 2019
Продолжительность: 00:10:33
Перевод: Не требуется
Субтитры: нет
Оригинальная аудиодорожка: Русский
Режиссер: Елена Бродач
В ролях: Ольга Сутулова, Тимофей Трибунцев
Описание: Опытный следователь подозревает в убийстве врача-кардиолога. Он сомневается, так как не понимает, почему добрая интеллигентная женщина пошла на хладнокровное, продуманное убийство соперницы, к которой давно ушел ее муж. Ревность? Чувство собственности? В обмен на правду следователь предлагает информацию, которая может изменить мировоззрение потенциальной преступницы.
Дополнительная информация:
Автор релиза -
Исходник - с видеосервиса START




Тип релиза: WEB-DL 1080p
Контейнер: MKV
Видео: MPEG-4, 1920x1080 (16:9), 6029 kbps, 25 fps, 0.116 bit/pixel
Аудио: Русский АAC, 48000 Гц, 2ch, 257 kbps

MediaInfo

Общее
Уникальный идентификатор : 2169998871819671907653908237420108644 (0x1A1ED3463BF2CD96EEAB09B4ECC9B64)
Полное имя : Эвтаназия.2019.WEB.1080p-ylnian.mkv
Формат : Matroska
Версия формата : Version 4
Размер файла : 475 Мбайт
Продолжительность : 10 м. 33 с.
Общий поток : 6 288 Кбит/сек
Дата кодирования : UTC 2021-02-17 12:04:20
Программа кодирования : mkvmerge v53.0.0 ('Fool's Gold') 64-bit
Библиотека кодирования : libebml v1.4.1 + libmatroska v1.6.2
Видео
Идентификатор : 1
Формат : AVC
Формат/Информация : Advanced Video Codec
Профиль формата : [email protected]
Настройки формата : CABAC / 4 Ref Frames
Параметр CABAC формата : Да
Параметр RefFrames формата : 4 кадра
Идентификатор кодека : V_MPEG4/ISO/AVC
Продолжительность : 10 м. 33 с.
Битрейт : 6 029 Кбит/сек
Ширина : 1 920 пикселей
Высота : 1 080 пикселей
Соотношение сторон : 16:9
Режим частоты кадров : Постоянный
Частота кадров : 25,000 кадров/сек
Цветовое пространство : YUV
Субдискретизация насыщенности : 4:2:0
Битовая глубина : 8 бит
Тип развёртки : Прогрессивная
Бит/(Пиксели*Кадры) : 0.116
Размер потока : 455 Мбайт (96%)
Язык : Russian
Default : Да
Forced : Нет
Цветовой диапазон : Limited
Основные цвета : BT.709
Характеристики трансфера : BT.709
Коэффициенты матрицы : BT.709
Аудио
Идентификатор : 2
Формат : AAC LC
Формат/Информация : Advanced Audio Codec Low Complexity
Идентификатор кодека : A_AAC-2
Продолжительность : 10 м. 33 с.
Битрейт : 257 Кбит/сек
Каналы : 2 канала
Channel layout : L R
Частота : 48,0 КГц
Частота кадров : 46,875 кадров/сек (1024 SPF)
Метод сжатия : С потерями
Размер потока : 19,4 Мбайт (4%)
Язык : Russian
Default : Да
Forced : Нет

Скриншоты