- Страна: Япония
Год выпуска: 2019
Жанр: Комедия, Музыка
Тип: TV
Продолжительность: 12 эп. по ~24 мин.
Режиссер: 阿部大護
Студия: Lide-Описание: Целых тридцать виртуальных ютуберов соберутся в одном аниме! Немного пошлая Акари Мирай, Кибер-девочка Сиро, любительница стрелялок Хината Нэкомия, прилежная староста Мито Цукино, а так же дуэт Химэхина — Химэ Танака и Хина Судзуки... Эта замечательная шестёрка так же объединится в особую группу и исполнит вступительную заставку второй половины сериала! Помимо главных героинь, нас ждут совершенно удивительные представители виртуального мира: и человекоподобная лошадь, и арахис, и виртуальная бабушка... так что определённо стоит на это посмотреть!-Качество: BDRip
Тип релиза: Без хардсаба, без линковки
Формат видео: MKV
Автор рипа: UHA-WINGS
Видео: HEVC, 1920x1080, 12272 kbps, 23,976fps, 10 bit
Аудио: FLAC, 652 kbps, 48 kHz, 2 ch, JAP
Субтитры Crunchyroll: ASS, RUS(ext)
Субтитры UHA-WINGS: ASS, CHI(ext) [chs+cht]-

Подробные тех. данные

Общее
Уникальный идентификатор : 95650482201763657778154257263985468747 (0x47F59CDF9797556CE1E0D866A168A54B)
Полное имя : G:\RUTRACKER 3\[UHA-WINGS][Virtual-san wa Miteiru][BDRIP 1920x1080 HEVC-YUV420P10 FLAC]\[UHA-WINGS][Virtual-san wa Miteiru][01][BDRIP 1920x1080 HEVC-YUV420P10 FLAC].mkv
Формат : Matroska
Версия формата : Version 4
Размер файла : 2,15 Гбайт
Продолжительность : 23 м. 46 с.
Режим общего битрейта : Переменный
Общий поток : 12,9 Мбит/сек
Дата кодирования : UTC 2020-09-21 18:24:10
Программа кодирования : mkvmerge v42.0.0 ('Overtime') 64-bit
Библиотека кодирования : libebml v1.3.10 + libmatroska v1.5.2
Видео
Идентификатор : 1
Формат : HEVC
Формат/Информация : High Efficiency Video Coding
Профиль формата : Main [email protected]@Main
Идентификатор кодека : V_MPEGH/ISO/HEVC
Продолжительность : 23 м. 46 с.
Битрейт : 12,3 Мбит/сек
Ширина : 1920 пикселей
Высота : 1080 пикселей
Соотношение сторон : 16:9
Режим частоты кадров : Постоянный
Частота кадров : 29,970 (30000/1001) кадров/сек
Цветовое пространство : YUV
Субдискретизация насыщенности : 4:2:0
Битовая глубина : 10 бит
Бит/(Пиксели*Кадры) : 0.197
Размер потока : 2,04 Гбайт (95%)
Библиотека кодирования : x265 3.4+1-g07e3381df+31:[Windows][GCC 10.1.0][64 bit] Yuuki 10bit+8bit+12bit
Настройки программы : rc=crf / crf=18.0000 / qcomp=0.65 / qpstep=4 / stats-write=0 / stats-read=0 / no-lossless / no-cu-lossless / aq-mode=1 / aq-strength=0.80 / cbqpoffs=-2 / crqpoffs=-2 / ipratio=1.40 / pbratio=1.20 / psy-rd=2.00 / psy-rdoq=1.00 / deblock=-1:-1 / ref=4 / limit-refs=1 / limit-modes / bframes=6 / b-adapt=2 / bframe-bias=0 / b-pyramid / b-intra / weightp / weightb / min-keyint=1 / max-keyint=360 / rc-lookahead=80 / gop-lookahead=0 / scenecut=40 / hist-scenecut=0 / radl=0 / max-cu-size=32 / min-cu-size=8 / me=3 / subme=3 / merange=38 / rdoq-level=2 / rd=3 / rdpenalty=0 / dynamic-rd=0.00 / no-rd-refine / ----- / cutree / no-sao / rect / no-amp / no-open-gop / wpp / no-pmode / no-pme / no-psnr / no-ssim / nr-intra=0 / nr-inter=0 / no-constrained-intra / no-strong-intra-smoothing / max-tu-size=32 / tu-inter-depth=3 / tu-intra-depth=3 / limit-tu=4 / qg-size=8 / qpmax=69 / qpmin=0 / ----- / cpuid=1111039 / frame-threads=4 / numa-pools=16 / log-level=2 / input-csp=1 / input-res=1920x1080 / interlace=0 / level-idc=0 / high-tier=1 / uhd-bd=0 / no-allow-non-conformance / no-repeat-headers / no-aud / no-hrd / info / hash=0 / no-temporal-layers / lookahead-slices=0 / no-splice / no-intra-refresh / no-ssim-rd / signhide / no-tskip / max-merge=4 / temporal-mvp / no-frame-dup / no-hme / no-analyze-src-pics / no-sao-non-deblock / selective-sao=0 / no-early-skip / rskip / no-fast-intra / no-tskip-fast / no-splitrd-skip / zone-count=0 / no-strict-cbr / no-rc-grain / no-const-vbv / sar=1 / overscan=0 / videoformat=5 / range=0 / colorprim=2 / transfer=2 / colormatrix=2 / chromaloc=0 / display-window=0 / cll=0,0 / min-luma=0 / max-luma=1023 / log2-max-poc-lsb=8 / vui-timing-info / vui-hrd-info / slices=1 / no-opt-qp-pps / no-opt-ref-list-length-pps / no-multi-pass-opt-rps / scenecut-bias=0.05 / hist-threshold=0.01 / no-opt-cu-delta-qp / no-aq-motion / no-hdr10 / no-hdr10-opt / no-dhdr10-opt / no-idr-recovery-sei / analysis-reuse-level=0 / analysis-save-reuse-level=0 / analysis-load-reuse-level=0 / scale-factor=0 / refine-intra=0 / refine-inter=0 / refine-mv=1 / refine-ctu-distortion=0 / no-limit-sao / ctu-info=0 / no-lowpass-dct / refine-analysis-type=0 / copy-pic=1 / max-ausize-factor=1.0 / no-dynamic-refine / no-single-sei / no-hevc-aq / no-svt / no-field / qp-adaptation-range=1.00 / no-scenecut-aware-qpconformance-window-offsets / right=0 / bottom=0 / decoder-max-rate=0
Default : Да
Forced : Нет
Аудио
Идентификатор : 2
Формат : FLAC
Формат/Информация : Free Lossless Audio Codec
Идентификатор кодека : A_FLAC
Продолжительность : 23 м. 46 с.
Вид битрейта : Переменный
Битрейт : 652 Кбит/сек
Каналы : 2 канала
ChannelLayout : L R
Частота : 48,0 КГц
Частота кадров : 10,417 кадров/сек (4608 SPF)
Битовая глубина : 16 бит
Метод сжатия : Без потерь
Размер потока : 111 Мбайт (5%)
Библиотека кодирования : Lavf58.43.100
Default : Да
Forced : Нет

Список эпизодов

01. Birth of Virtual-san
02. The Legendary Secret Medicine... Oh, I Feel Hot!
03. Gorrila Rampages, Normies Explode
04. Erupt! Maximum Magic, Buchitova
05. One Cannot Live Without Loafing!
06. PP Dance Festival
07. I`m Salty
08. White Tears
09. Transmigration of an Old Lady`s Soul
10. Letting Your Horse Carry You Whenever
11. Granny
12. The Disappearance of Virtual-san

Скриншоты