Вселенная (1-5 серий из 5) / Universe (Poppy Pinnock / Поппи Пиннок) [2021, Документальный, космос, DVB] DVO (СВ-Дубль) + Sub Rus + Localized version :: Российский Торрент трекер
Российский Торрент трекер
Яндекс.Погода
 

[Quote]
HUNTER

Вселенная / Universe
Дата/Год выпуска: 2021
Страна: Великобритания, BBC Studios
Жанр: Документальный, космос
Продолжительность: 5 х ~00:51:59
Перевод: Профессиональный (двухголосый закадровый)
Доп. инфо о переводе: СВ-Дубль
Русские субтитры: есть
Формат субтитров: softsub (SRT)
Доп. информация о субтитрах: СВ-Дубль
Режиссер: Poppy Pinnock / Поппи Пиннок
Телеканал: Культура
Описание: Из глубин черных дыр в таинственные инопланетные миры, путешествуйте в самые темные уголки Вселенной, как никогда раньше...
imdb
Сэмпл: https://dropmefiles.com/A4iua
качество: DVB
формат: MKV
Видео: 720x576 (16:9) AVC (H.264) [email protected], ~ 1496 kbps, 25 fps
Аудио: Русский 48 kHz, MPEG Layer 2, 2 ch, ~192.00 kbps avg

Список выпусков/серий

01. Солнце — звезда-повелитель / The Sun: God Star
В ста пятидесяти миллионах километров от Земли находится ближайшая к нам звезда — Солнце, вокруг которого вращаются восемь планет. Постоянный источник жизни нашей планеты. Люди потратили тысячелетия на его изучение, но Солнце — не особенно дружелюбная среда, к нему не так легко приблизиться. Но наука не стоит на месте, и, возможно, новые технологии и космические телескопы помогут разгадать его тайны, ведь если мы поймем, как образовалось Солнце, мы сможем больше узнать, как возникла жизнь на Земле.
02. Другие миры: в поисках новой Земли / Alien Worlds: The Search for a Second Earth
Один из самых волнующих вопросов, связанных со Вселенной, — это существуют ли другие обитаемые планеты кроме нашей Земли? Каковы шансы, что среди звезд нашей Галактики, Млечного Пути, есть сложная жизнь, подобная нашей? Планеты земного типа, вращающиеся вокруг своих звёзд на том же расстоянии, что и Земля вокруг Солнца, очень трудно обнаружить. Однако в последние годы были найдены десятки, сотни и тысячи таких планет. Их называют экзопланеты. И условия на некоторых из них позволяют надеяться, что и там когда-нибудь возникнут формы жизни.
03. Млечный Путь — архипелаг огней / The Milky Way: Island of Light
Млечный Путь — это наш дом, наша Галактика. Находясь на Земле, мы смотрим на нее как будто из ее центра. Но со стороны Млечный Путь выглядит как диск из четырехсот миллиардов звезд, это настоящий архипелаг света с длинной историей бурного развития. Если мы хотим узнать, как образовалась наша Галактика, нужно заглянуть еще дальше в космос и познакомиться с другими галактиками, с которыми сталкивался Млечный Путь или столкнется в будущем.
04. Черные дыры — в сердце тьмы / Black Holes: Heart of Darkness
Черные дыры — величайшее проявление таинственных сил природы. Они скрываются в темноте космоса, и их не так просто увидеть. Еще сложнее их представить и понять их природу. Их силы настолько велики, что они могут поглощать материю и влиять на форму Галактики. В центре нашей Галактики Млечный Путь тоже находится черная дыра, влияющая на судьбу Млечного Пути, нашей Солнечной системы и, конечно, на судьбу нашей Земли. Ученые пытаются понять природу этих таинственных образований, которые управляют нами сегодня и переживут нас на триллионы лет.
05. Перед рассветом. Большой взрыв / The Big Bang: Before the Dawn
Наша Солнечная система — это всего лишь небольшой уголок огромной Вселенной, наполненной множеством удивительных объектов и небесных тел. Нас окружают блазары, квазары, магнитары, пульсары, туманные галактики и гигантские черные дыры. Они появились до возникновения Земли и переживут нас на триллионы лет. Нам кажется, что они вечны. Но это не так. Самые древние космические объекты тоже были не всегда, они когда-то родились и когда-нибудь прекратят свое существование. Поэтому один из главных вопросов, связанных с изучением космоса и нашей жизни, — с чего все начиналось? Один из ответов — Большой взрыв. Но что было до Большого взрыва?

MediaInfo

Complete name : G:\Торренты\Вселенная_BBC\01. Солнце_звезда-повелитель.mkv
Format : Matroska
Format version : Version 4
File size : 641 MiB
Duration : 51 min 59 s
Overall bit rate : 1 722 kb/s
Encoded date : UTC 2022-03-12 18:20:03
Writing application : mkvmerge v6.6.0 ('The Edge Of The In Between') built on Dec 1 2013 17:55:00
Writing library : libebml v1.3.0 + libmatroska v1.4.1
Video
ID : 1
Format : AVC
Format/Info : Advanced Video Codec
Format profile : [email protected]
Format settings : CABAC / 4 Ref Frames
Format settings, CABAC : Yes
Format settings, Reference : 4 frames
Codec ID : V_MPEG4/ISO/AVC
Bit rate : 1 496 kb/s
Width : 720 pixels
Height : 576 pixels
Display aspect ratio : 16:9
Frame rate mode : Variable
Original frame rate : 25.000 FPS
Standard : Component
Color space : YUV
Chroma subsampling : 4:2:0
Bit depth : 8 bits
Scan type : Interlaced
Scan type, store method : Separated fields
Scan order : Top Field First
Default : Yes
Forced : No
Color range : Limited
Color primaries : BT.601 PAL
Transfer characteristics : BT.470 System B/G
Matrix coefficients : BT.470 System B/G
Audio
ID : 2
Format : MPEG Audio
Format version : Version 1
Format profile : Layer 2
Codec ID : A_MPEG/L2
Codec ID/Hint : MP2
Duration : 51 min 59 s
Bit rate mode : Constant
Bit rate : 192 kb/s
Channel(s) : 2 channels
Sampling rate : 48.0 kHz
Compression mode : Lossy
Stream size : 71.4 MiB (11%)
Language : Russian
Default : Yes
Forced : No
Text
ID : 3
Format : UTF-8
Codec ID : S_TEXT/UTF8
Codec ID/Info : UTF-8 Plain Text
Title : СВ-Дубль
Language : Russian
Default : No
Forced : No
Complete name : G:\Торренты\Вселенная_BBC\02. Другие миры_в поисках новой Земли.mkv
Format : Matroska
Format version : Version 4
File size : 623 MiB
Duration : 51 min 46 s
Overall bit rate : 1 683 kb/s
Encoded date : UTC 2022-03-12 18:34:52
Writing application : mkvmerge v6.6.0 ('The Edge Of The In Between') built on Dec 1 2013 17:55:00
Writing library : libebml v1.3.0 + libmatroska v1.4.1
Video
ID : 1
Format : AVC
Format/Info : Advanced Video Codec
Format profile : [email protected]
Format settings : CABAC / 4 Ref Frames
Format settings, CABAC : Yes
Format settings, Reference : 4 frames
Codec ID : V_MPEG4/ISO/AVC
Bit rate : 1 458 kb/s
Width : 720 pixels
Height : 576 pixels
Display aspect ratio : 16:9
Frame rate mode : Variable
Original frame rate : 25.000 FPS
Standard : Component
Color space : YUV
Chroma subsampling : 4:2:0
Bit depth : 8 bits
Scan type : Interlaced
Scan type, store method : Separated fields
Scan order : Top Field First
Default : Yes
Forced : No
Color range : Limited
Color primaries : BT.601 PAL
Transfer characteristics : BT.470 System B/G
Matrix coefficients : BT.470 System B/G
Audio
ID : 2
Format : MPEG Audio
Format version : Version 1
Format profile : Layer 2
Codec ID : A_MPEG/L2
Codec ID/Hint : MP2
Duration : 51 min 46 s
Bit rate mode : Constant
Bit rate : 192 kb/s
Channel(s) : 2 channels
Sampling rate : 48.0 kHz
Compression mode : Lossy
Stream size : 71.1 MiB (11%)
Language : Russian
Default : Yes
Forced : No
Text
ID : 3
Format : UTF-8
Codec ID : S_TEXT/UTF8
Codec ID/Info : UTF-8 Plain Text
Title : СВ-Дубль
Language : Russian
Default : No
Forced : No
Complete name : G:\Торренты\Вселенная_BBC\03. Млечный Путь.mkv
Format : Matroska
Format version : Version 4
File size : 660 MiB
Duration : 51 min 59 s
Overall bit rate : 1 774 kb/s
Encoded date : UTC 2022-03-12 18:37:07
Writing application : mkvmerge v6.6.0 ('The Edge Of The In Between') built on Dec 1 2013 17:55:00
Writing library : libebml v1.3.0 + libmatroska v1.4.1
Video
ID : 1
Format : AVC
Format/Info : Advanced Video Codec
Format profile : [email protected]
Format settings : CABAC / 4 Ref Frames
Format settings, CABAC : Yes
Format settings, Reference : 4 frames
Codec ID : V_MPEG4/ISO/AVC
Bit rate : 1 546 kb/s
Width : 720 pixels
Height : 576 pixels
Display aspect ratio : 16:9
Frame rate mode : Variable
Original frame rate : 25.000 FPS
Standard : Component
Color space : YUV
Chroma subsampling : 4:2:0
Bit depth : 8 bits
Scan type : Interlaced
Scan type, store method : Separated fields
Scan order : Top Field First
Default : Yes
Forced : No
Color range : Limited
Color primaries : BT.601 PAL
Transfer characteristics : BT.470 System B/G
Matrix coefficients : BT.470 System B/G
Audio
ID : 2
Format : MPEG Audio
Format version : Version 1
Format profile : Layer 2
Codec ID : A_MPEG/L2
Codec ID/Hint : MP2
Duration : 51 min 59 s
Bit rate mode : Constant
Bit rate : 192 kb/s
Channel(s) : 2 channels
Sampling rate : 48.0 kHz
Compression mode : Lossy
Stream size : 71.4 MiB (11%)
Language : Russian
Default : Yes
Forced : No
Text
ID : 3
Format : UTF-8
Codec ID : S_TEXT/UTF8
Codec ID/Info : UTF-8 Plain Text
Title : СВ-Дубль
Language : Russian
Default : No
Forced : No
Complete name : G:\Торренты\Вселенная_BBC\04. Черные дыры.mkv
Format : Matroska
Format version : Version 4
File size : 749 MiB
Duration : 51 min 57 s
Overall bit rate : 2 016 kb/s
Encoded date : UTC 2022-03-12 18:36:01
Writing application : mkvmerge v6.6.0 ('The Edge Of The In Between') built on Dec 1 2013 17:55:00
Writing library : libebml v1.3.0 + libmatroska v1.4.1
Video
ID : 1
Format : AVC
Format/Info : Advanced Video Codec
Format profile : [email protected]
Format settings : CABAC / 4 Ref Frames
Format settings, CABAC : Yes
Format settings, Reference : 4 frames
Codec ID : V_MPEG4/ISO/AVC
Bit rate : 1 783 kb/s
Width : 720 pixels
Height : 576 pixels
Display aspect ratio : 16:9
Frame rate mode : Variable
Original frame rate : 25.000 FPS
Standard : Component
Color space : YUV
Chroma subsampling : 4:2:0
Bit depth : 8 bits
Scan type : Interlaced
Scan type, store method : Separated fields
Scan order : Top Field First
Default : Yes
Forced : No
Color range : Limited
Color primaries : BT.601 PAL
Transfer characteristics : BT.470 System B/G
Matrix coefficients : BT.470 System B/G
Audio
ID : 2
Format : MPEG Audio
Format version : Version 1
Format profile : Layer 2
Codec ID : A_MPEG/L2
Codec ID/Hint : MP2
Duration : 51 min 57 s
Bit rate mode : Constant
Bit rate : 192 kb/s
Channel(s) : 2 channels
Sampling rate : 48.0 kHz
Compression mode : Lossy
Stream size : 71.4 MiB (10%)
Language : Russian
Default : Yes
Forced : No
Text
ID : 3
Format : UTF-8
Codec ID : S_TEXT/UTF8
Codec ID/Info : UTF-8 Plain Text
Title : СВ-Дубль
Language : Russian
Default : No
Forced : No
Complete name : G:\Торренты\Вселенная_BBC\05. Перед рассветом. Большой взрыв.mkv
Format : Matroska
Format version : Version 4
File size : 893 MiB
Duration : 51 min 52 s
Overall bit rate : 2 406 kb/s
Encoded date : UTC 2022-03-12 18:36:34
Writing application : mkvmerge v6.6.0 ('The Edge Of The In Between') built on Dec 1 2013 17:55:00
Writing library : libebml v1.3.0 + libmatroska v1.4.1
Video
ID : 1
Format : AVC
Format/Info : Advanced Video Codec
Format profile : [email protected]
Format settings : CABAC / 4 Ref Frames
Format settings, CABAC : Yes
Format settings, Reference : 4 frames
Codec ID : V_MPEG4/ISO/AVC
Bit rate : 2 166 kb/s
Width : 720 pixels
Height : 576 pixels
Display aspect ratio : 16:9
Frame rate mode : Variable
Original frame rate : 25.000 FPS
Standard : Component
Color space : YUV
Chroma subsampling : 4:2:0
Bit depth : 8 bits
Scan type : Interlaced
Scan type, store method : Separated fields
Scan order : Top Field First
Default : Yes
Forced : No
Color range : Limited
Color primaries : BT.601 PAL
Transfer characteristics : BT.470 System B/G
Matrix coefficients : BT.470 System B/G
Audio
ID : 2
Format : MPEG Audio
Format version : Version 1
Format profile : Layer 2
Codec ID : A_MPEG/L2
Codec ID/Hint : MP2
Duration : 51 min 52 s
Bit rate mode : Constant
Bit rate : 192 kb/s
Channel(s) : 2 channels
Sampling rate : 48.0 kHz
Compression mode : Lossy
Stream size : 71.2 MiB (8%)
Language : Russian
Default : Yes
Forced : No
Text
ID : 3
Format : UTF-8
Codec ID : S_TEXT/UTF8
Codec ID/Info : UTF-8 Plain Text
Title : СВ-Дубль
Language : Russian
Default : No
Forced : No

Дополнительная информация

Запись DVB в формате "TS" - прямая потоковая запись. Без компрессии и конвертации. Обрезка рекламы (начало, конец, середина) производилась программой VideoReDo TVSuite V6. Далее, программой TSDoctor вытащены субтитры и в MKVToolnix сделана сборка путем муксирования в формат "MKV" с добавлением субтитров.

Версия сериала

Кадров с участием Брайан Кокса не видел.


Display posts:    

Current time is: 05-Jul 01:07

All times are UTC ± 0


You cannot post new topics in this forum
You cannot reply to topics in this forum
You cannot edit your posts in this forum
You cannot delete your posts in this forum
You cannot vote in polls in this forum
You cannot attach files in this forum
You cannot download files in this forum

!ATTENTION!
The site does not give electronic versions of products, and is engaged only in a collecting and cataloguing of the references sent and published at a forum by our readers. If you are the legal owner of any submitted material and do not wish that the reference to it was in our catalogue, contact us and we shall immediately remove her. Files for an exchange on tracker are given by users of a site, and the administration does not bear the responsibility for their maintenance. The request to not fill in the files protected by copyrights, and also files of the illegal maintenance!