Ивановский Торрент трекер
Яндекс.Погода
 

[Quote]
HUNTER

Воины-скелеты
Skeleton Warriors- Страна: США
Жанр: Мультсериал, фэнтези, приключения
Продолжительность: 00:22:51
Год выпуска: 1994
Перевод: Авторский (одноголосый закадровый: Михаил Иванов)
Русские субтитры: нет-Режиссёр: Сью Питерс / Sue Peters
Роли озвучивали: Тони Джей, Дженнифер Хейл, Эрл Боэн, Джим Каммингс, Пол Айдинг, Джинни Илайас, Линда Гэри, Майкл Гоф, Ричард Молинэр, Гэри Оуэнс и др.-Описание: После смeрти короля, мудрого и дoбрoго правителя дaлекой планeты, младший брaт поддался на предательскиe уговoры коварного Барона Дарка, служившего ранее отцу, и выступил против старшего. Он помог ему завладеть половиной кристалла Звезды Света, который давал силу и энергию королевству Луменсити. После схватки Барон и его приспешники превратились в живые, неуязвимые скелеты, а братьям с сестрой пришлось бежать к дяде. Тут и начинается непримиримая борьба добра и света против сил тьмы и зла, так как обеим сторонам досталось по половине кристалла.-Список серий:
01: Плоть и кость / Flesh and Bone-Релиз: |
denis_mgn_1987 и RoxMarty ... перевод Иванова
Áлексис ... синхронизация-Качество: DVDRip
Формат: MKV
Видео: 640x480 (4:3), 23.976 fps, XviD 65, ~1937 kbps, 0.263 bit/pixel
Аудио #1: 48 kHz, AC3 Dolby Digital, 2/0 ch (dual-mono), ~192.00 kbps avg (Иванов)
Аудио #2: 48 kHz, AC3 Dolby Digital, 2/0 ch (stereo), ~192.00 kbps avg (оригинал)

Подробные технические данные

General
Complete name : D:\Skeleton Warriors - 1x01 - Flesh and Bone [Иванов+Eng] [RG Мультфильмы].avi
Format : AVI
Format/Info : Audio Video Interleave
File size : 382 MiB
Duration : 22 min 50 s
Overall bit rate : 2 335 kb/s
Writing application : VirtualDubMod 1.5.10.2 (build 2540/release)
Writing library : VirtualDubMod build 2540/release
Video
ID : 0
Format : MPEG-4 Visual
Format profile : Advanced [email protected]
Format settings : BVOP2 / Custom Matrix
Format settings, BVOP : 2
Format settings, QPel : No
Format settings, GMC : No warppoints
Format settings, Matrix : Custom
Codec ID : XVID
Codec ID/Hint : XviD
Duration : 22 min 50 s
Bit rate : 1 937 kb/s
Width : 640 pixels
Height : 480 pixels
Display aspect ratio : 4:3
Frame rate : 23.976 (24000/1001) FPS
Color space : YUV
Chroma subsampling : 4:2:0
Bit depth : 8 bits
Scan type : Progressive
Compression mode : Lossy
Bits/(Pixel*Frame) : 0.263
Stream size : 317 MiB (83%)
Writing library : XviD 65
Audio #1
ID : 1
Format : AC-3
Format/Info : Audio Coding 3
Commercial name : Dolby Digital
Codec ID : 2000
Duration : 22 min 50 s
Bit rate mode : Constant
Bit rate : 192 kb/s
Channel(s) : 2 channels
Channel layout : L R
Sampling rate : 48.0 kHz
Frame rate : 31.250 FPS (1536 SPF)
Compression mode : Lossy
Stream size : 31.4 MiB (8%)
Alignment : Split across interleaves
Interleave, duration : 42 ms (1.00 video frame)
Interleave, preload duration : 500 ms
Service kind : Complete Main
Audio #2
ID : 2
Format : AC-3
Format/Info : Audio Coding 3
Commercial name : Dolby Digital
Codec ID : 2000
Duration : 22 min 50 s
Bit rate mode : Constant
Bit rate : 192 kb/s
Channel(s) : 2 channels
Channel layout : L R
Sampling rate : 48.0 kHz
Frame rate : 31.250 FPS (1536 SPF)
Compression mode : Lossy
Stream size : 31.4 MiB (8%)
Alignment : Split across interleaves
Interleave, duration : 42 ms (1.00 video frame)
Interleave, preload duration : 500 ms
Service kind : Complete Main
- - Все раздачи мультсериала


Display posts:    

Current time is: 21-Jan 21:54

All times are UTC ± 0


You cannot post new topics in this forum
You cannot reply to topics in this forum
You cannot edit your posts in this forum
You cannot delete your posts in this forum
You cannot vote in polls in this forum
You cannot attach files in this forum
You cannot download files in this forum

!ATTENTION!
The site does not give electronic versions of products, and is engaged only in a collecting and cataloguing of the references sent and published at a forum by our readers. If you are the legal owner of any submitted material and do not wish that the reference to it was in our catalogue, contact us and we shall immediately remove her. Files for an exchange on tracker are given by users of a site, and the administration does not bear the responsibility for their maintenance. The request to not fill in the files protected by copyrights, and also files of the illegal maintenance!