Vизитеры / V (Ив Симоно, Дэвид Баррет, Брайан Спайсер) [2009-2011 г., Фантастика, триллер, драма,WEB-DLRip] :: Российский Торрент трекер
Российский Торрент трекер
Яндекс.Погода
 

[Quote]
PIONER

Vизитеры / V Год выпуска: 2009-2011
Страна: USA
Жанр: Фантастика, триллер, драма
Продолжительность: 22 x ~ 00:43:00
Перевод:Профессиональный многоголосый (Студия "Kravec", LostFilm.TV)
-Режиссер: Ив Симоно, Дэвид Баррет, Брайан Спайсер-В ролях: Элизабет Митчелл, Моррис Честнат, Джоэль Гретш, Логан Хаффман, Лора Вандервурт, Морена Баккарин, Скотт Вулф, Кристофер Шайер, Чарльз Межер, Марк Хилдрет
-Описание: Сегодня весь мир проснулся и увидел, что над каждым городом парят космические корабли. Прибывшие утверждают что пришли с миром, и предлагают подарки в виде медицинских открытий и технологических усовершенствований. Они обещают, что не навредят. Они лгут. Большинство человечества верит, что чужие прибыли как раз тогда, когда мы в них нуждались. Люди с радостью принимают их помощь.
-
Качество:WEB-DLRip
Формат: AVI
Видео кодек: XviD
Аудио кодек: AC3
Видео:720x400 (1.80:1), 23.976 fps, XviD build 50 ~1535 kbps avg, 0.22 bit/pixel
Аудио: 48 kHz, AC3 Dolby Digital, 3/2 (L,C,R,l,r) + LFE ch, ~384 kbps

MI -на всякий случай

Формат : AVI
Формат/Информация : Audio Video Interleave
Размер файла : 593 Мбайт
Продолжительность : 42 м.
Общий поток : 1931 Кбит/сек
Программа кодирования : VirtualDubModRus 1.5.10.2 (build 2542/release)
Библиотека кодирования : VirtualDubMod build 2542/release
Видео
Идентификатор : 0
Формат : MPEG-4 Visual
Профиль формата : Advanced [email protected]
Параметр BVOP формата : 1
Параметр QPel формата : Нет
Параметр GMC формата : Без точки перехода
Параметр матрицы формата : Default (H.263)
Идентификатор кодека : XVID
Идентификатор кодека/Подсказка : XviD
Продолжительность : 42 м.
Битрейт : 1538 Кбит/сек
Ширина : 720 пикс.
Высота : 400 пикс.
Соотношение сторон : 16:9
Частота кадров : 23,976 кадр/сек
Цветовое пространство : YUV
Подвыборка цветности : 4:2:0
Битовая глубина : 8 бит
Тип развёртки : Прогрессивная
Метод сжатия : С потерями
Бит/(Пиксели*Кадры) : 0.223
Размер потока : 472 Мбайт (80%)
Библиотека кодирования : XviD 1.2.1 (UTC 2008-12-04)
Аудио
Идентификатор : 1
Формат : AC-3
Формат/Информация : Audio Coding 3
Расширение режима : CM (complete main)
Идентификатор кодека : 2000
Продолжительность : 42 м.
Вид битрейта : Постоянный
Битрейт : 384 Кбит/сек
Канал(ы) : 6 канала(ов)
Расположение каналов : Front: L C R, Side: L R, LFE
Частота : 48,0 КГц
Битовая глубина : 16 бит
Метод сжатия : С потерями
Размер потока : 118 Мбайт (20%)
Выравнивание : Разделение по промежуткам
Продолжительность промежутка : 42 мс. (1,00 видеокадр)
Время предзагрузки промежутка : 500 ms
-

Картинки






Display posts:    

Current time is: 26-Jan 23:19

All times are UTC ± 0


You cannot post new topics in this forum
You cannot reply to topics in this forum
You cannot edit your posts in this forum
You cannot delete your posts in this forum
You cannot vote in polls in this forum
You cannot attach files in this forum
You cannot download files in this forum

!ATTENTION!
The site does not give electronic versions of products, and is engaged only in a collecting and cataloguing of the references sent and published at a forum by our readers. If you are the legal owner of any submitted material and do not wish that the reference to it was in our catalogue, contact us and we shall immediately remove her. Files for an exchange on tracker are given by users of a site, and the administration does not bear the responsibility for their maintenance. The request to not fill in the files protected by copyrights, and also files of the illegal maintenance!