Ивановский Торрент трекер
Яндекс.Погода
 

[Quote]
HUNTER

Ели у Емели- Автор: Василий Емельяненко
Страна: Россия
Тематика: Кулинария, обучающее видео, видеорецепты
Тип раздаваемого материала: Видеоурок
Продолжительность: 35 х ~ 00:24:00
Год выпуска: 2018-Язык: Русский
Перевод: Не требуется-Описание: Программа «Ели у Емели» − пошаговый кулинарный мастер-класс по приготовлению супов всех видов, горячих вторых блюд, салатов и разнообразных закусок. Каждый выпуск – это маленькое кулинарное открытие! Вы удивитесь, но из простых и недорогих ингредиентов, которые есть в любом продуктовом магазине, можно приготовить действительно изысканные блюда: пастуший пирог с треской под картофельной шапкой, тушенку из утки с квасным суслом и кореньями, соте из барашка со шляпками шампиньонов и кореньями и многое другое. Несложные и оригинальные способы приготовления позволят пополнить кулинарный арсенал телезрителей, а представленные рецепты разнообразят ежедневные семейные ужины и украсят праздничное застолье!-Доп. информация: Rip by Tarjaa-Качество: HDTVRip
Формат: AVI
Видео кодек: XviD
Аудио кодек: MP3
Видео: XviD, 720x400 (16:9), 25.000 fps, 2 300 Kbps (0.319 bit/pixel)
Аудио: MP3, 48.0 KHz, 2 ch, 128 Kbps, CBR - русский

Содержание

01 эп. Запеканка из картофеля с треской и салат из кальмаров.
02 эп. Куриная поджарка с розочками из картофеля и французский салат.
03 эп. Запеченый судак в томатном маринаде и салат с сельдью.
04 эп. Блинчики на топлёном молоке и салат из запечёного перца.
05 эп. Котлеты с толчёнкой из батата и салат с уткой и грейпфрутом.
06 эп. Соте из барашка со шляпками шампиньонов и салат из курицы с печёными баклажанами.
07 эп. Стейк пиканья с гарниром и салат из свежих овощей с гренками.
08 эп. Пирог из баклажанов с картошкой и салат из кролика с апельсинами.
09 эп. Картофель "гармошкас беконом" и салат из печеных томатов и лука с заправкой.
10 эп. Паэлья с морепродуктами и салат из морепродуктов с картофелем.
11 эп. Свиная шея с розмарином на гриле и фруктовый салат с заправкой из кокосового молока и зеленым базиликом.
12 эп. Запеченная тыква с кусочками курицы и пряными траваим и салат из маринованной тыквы и кунжутным маслом.
13 эп. Куриные котлетки со сливочно-грибным соусом и кабачками гриль; Салат капустный с беконом, свежей свеклой , чесноком и тархуном.
14 эп.Стейки трески с сальсой из томатов и болгарскокго перца; Салат из копченого сыра и черного винограда с фондуком, черри и вешенками.
15 эп.Тушенка из утки с квасным суслом и креветочный салат с авакадо.
16 эп. Щучьи биточки с картофельным пюре с шпинатом и салат из фасоли с инжиром.
17 эп. Сырный суп с печеным перцем и ленивые вареники
18 эп. Гороховая каша и банница.
19 эп. Тушёный картофель со шпикачками и салат из кабачков и тыквы.
20 эп. Строганов из баранины и салат с кальмарами.
21 эп. Пирог из рыбы и салат с курицей и мандаринами.
22 эп. Фаршированные перцы и рулеты с колбасками.
23 эп. Куриные леденцы и закуска из печени трески.
24 эп. Голубцы из савойской капусты и салат с креветками.
26 эп. Чизкей по-русски и кунжутное молоко.
25 эп. Рыба по-царски в горшочках и закуска из буженины.
26 эп. Чизкейк по-русски и кунжутное молоко.
27 эп. Сливочный суп с морепродуктами. Тосты с кремом из авокадо и огурцом.
28 эп. Суп-пюре из кукурузы с хрустящим беконом. Жареный адыгейский сыр.
29 эп. Суп-лапша на тройном бульоне с яйцом и шиитаке. Тыква по-корейски с кунжутом.
30 эп. Марокканский суп с нутом и куриными колбасками гриль. Бабагануш с питой.
31 эп. Вонтон-суп с креветками. Битые огурцы по-китайски.
32 эп. Грибной суп-пюре с картофельными крокетами. Чипсы из твердого сыра.
33 эп. Щи валаамские с сушеными грибами. Закуска из белой фасоли.
34 эп. Тыквенный суп и закуска из огурцов.
35 эп. Суп из бычьих хвостов и гренки с соусом из печеных томатов.

MediaInfo

Общее
Полное имя : D:\Раздачи\Ели у Емели\Ели у Емели, 1 сезон, 01 эп. Запеканка из картофеля с треской и салат из кальмаров.avi
Формат : AVI
Формат/Информация : Audio Video Interleave
Размер файла : 411 Мбайт
Продолжительность : 23 м.
Общий поток : 2438 Кбит/сек
Программа кодирования : VirtualDubMod 1.5.10.3 | www.virtualdub-fr.org || (build 2550/release)
Библиотека кодирования : VirtualDubMod build 2550/release
Видео
Идентификатор : 0
Формат : MPEG-4 Visual
Профиль формата : Advanced [email protected]
Параметр BVOP формата : 1
Параметр QPel формата : Нет
Параметр GMC формата : Без точки перехода
Параметр матрицы формата : Default (H.263)
Идентификатор кодека : XVID
Идентификатор кодека/Подсказка : XviD
Продолжительность : 23 м.
Битрейт : 2300 Кбит/сек
Ширина : 720 пикселей
Высота : 400 пикселей
Соотношение сторон : 16:9
Частота кадров : 25,000 кадров/сек
Цветовое пространство : YUV
Субдискретизация насыщенности : 4:2:0
Битовая глубина : 8 бит
Тип развёртки : Прогрессивная
Метод сжатия : С потерями
Бит/(Пиксели*Кадры) : 0.319
Размер потока : 388 Мбайт (94%)
Библиотека кодирования : XviD 1.2.1 (UTC 2008-12-04)
Аудио
Идентификатор : 1
Формат : MPEG Audio
Версия формата : Version 1
Профиль формата : Layer 3
Идентификатор кодека : 55
Идентификатор кодека/Подсказка : MP3
Продолжительность : 23 м.
Вид битрейта : Постоянный
Битрейт : 128 Кбит/сек
Каналы : 2 канала
Частота : 48,0 КГц
Метод сжатия : С потерями
Размер потока : 21,6 Мбайт (5%)
Выравнивание : Соединение по промежуткам
Продолжительность промежутка : 40 мс. (1,00 видеокадр)
Время предзагрузки промежутка : 504 мс.
Библиотека кодирования : LAME3.98r
Настройки программы : -m s -V 4 -q 2 -lowpass 17 -b 128

Скриншоты




Display posts:    

Current time is: 26-Feb 04:30

All times are UTC ± 0


You cannot post new topics in this forum
You cannot reply to topics in this forum
You cannot edit your posts in this forum
You cannot delete your posts in this forum
You cannot vote in polls in this forum
You cannot attach files in this forum
You cannot download files in this forum

!ATTENTION!
The site does not give electronic versions of products, and is engaged only in a collecting and cataloguing of the references sent and published at a forum by our readers. If you are the legal owner of any submitted material and do not wish that the reference to it was in our catalogue, contact us and we shall immediately remove her. Files for an exchange on tracker are given by users of a site, and the administration does not bear the responsibility for their maintenance. The request to not fill in the files protected by copyrights, and also files of the illegal maintenance!