Ивановский Торрент трекер
Яндекс.Погода
 

[Quote]
HUNTER

-Ванда/Вижн | WandaVision- Год выпуска: 2021
Страна: США / Marvel Studios Inc.
Жанр: Фантастика, фэнтези, боевик, драма, комедия, приключения
Продолжительность: ~ 00:30:00-Перевод: Профессиональный (многоголосый закадровый) | AlexFilm-Режиссёр: Мэтт Шекман-В ролях: Пол Беттани, Элизабет Олсен, Кэт Деннингс, Кэтрин Хан, Рэндолл Пак, Шэйн Беренг, Грэй Гриффин, Тейона Паррис, Джолин Парди, Эмма Колфилд, Азиф Али, Брайан Брайтман, Аарон Гиллеспи, Шон Маклин, Фред Меламед, Энтони Молинари, Дебра Джо Рапп, Чейз Мэйсер, Винни Коста, Эмбер Мартинес-Описание: Ванда и Вижн — молодожены, живущие в идиллическом городке Вествью. Поначалу жизнь героев кажется им идеальной, но постепенно они понимают, что это не так.-[box=#aed8ff,#003465]Ссылка на предыдущие и альтернативные раздачи[/box]- -Качество: WEB-DLRip
Контейнер: AVI
Видео: XviD, 704x400 (16:9), 720x304 (2,35:1), 23,976 кадров/сек, 1700 Кбит/сек
Аудио Rus: AC3, 48,0 kHz, 2 ch, 192 Кбит/сек | AlexFilm
Аудио Eng: AC3, 48,0 kHz, 2 ch, 192 Кбит/сек
Субтитры: Русские (Forced, Full |«Где тексты, Лебовски?»), английские (SDH)
Реклама: Отсутствует-

Список серий

  • 01. Снято перед живой аудиторией / Filmed Before a Live Studio Audience
  • 02. Не переключайте! / Don't Touch That Dial
  • 03. Теперь в цвете / Now in Color
  • 04. Мы прерываем эфир / We Interrupt This Program
  • 05. В очень особенном эпизоде... / On a Very Special Episode...
  • 06. Жутко интересный Хэллоуин! / All-New Halloween Spooktacular!
  • 07. Ломаем четвертую стену / Breaking the Fourth Wall
  • 08. В предыдущих сериях / Previously On
-

Знаете ли вы, что…

• «Ванда/Вижн» вдохновлены классическими ситкомами XX века, поэтому первую серию снимали перед живой аудиторией. Все, кто присутствовал на площадке, подписывали документы о неразглашении.
• Для максимальной аутентичности съёмочная группа носила одежду в стиле 1950-х, а операторы использовали старые линзы, чтобы визуальный ряд сериала напоминал старое телевидение.
• Сериал частично снимали на ранчо Warner Bros., расположенном в пригороде Лос-Анджелеса.
-

MediaInfo

Общее
Полное имя : D:\WandaVision (Season 1) AlexFilm WEB-DLRip\WandaVision.S01E01.WEB-DLRip.AlexFilm.RGzsRutracker.[Wentworth_Miller].avi
Формат : AVI
Формат/Информация : Audio Video Interleave
Размер файла : 398 Мбайт
Продолжительность : 26 м. 33 с.
Общий поток : 2 098 Кбит/сек
Программа кодирования : VirtualDubMod 1.5.10.3 | www.virtualdub-fr.org || (build 2550/release)
Библиотека кодирования : VirtualDubMod build 2550/release
Видео
Идентификатор : 0
Формат : MPEG-4 Visual
Профиль формата : Advanced [email protected]
Настройки формата : BVOP1 / Custom Matrix
Параметр BVOP формата : 1
Параметр QPel формата : Нет
Параметр GMC формата : Без точки перехода
Параметр матрицы формата : Выборочная
Идентификатор кодека : XVID
Идентификатор кодека/Подсказка : XviD
Продолжительность : 26 м. 33 с.
Битрейт : 1 700 Кбит/сек
Ширина : 704 пикселя
Высота : 400 пикселей
Соотношение сторон : 16:9
Частота кадров : 23,976 (24000/1001) кадра/сек
Цветовое пространство : YUV
Субдискретизация насыщенности : 4:2:0
Битовая глубина : 8 бит
Тип развёртки : Прогрессивная
Метод сжатия : С потерями
Бит/(Пиксели*Кадры) : 0.252
Размер потока : 323 Мбайт (81%)
Библиотека кодирования : XviD 69
Аудио #1
Идентификатор : 1
Формат : AC-3
Формат/Информация : Audio Coding 3
Коммерческое название : Dolby Digital
Идентификатор кодека : 2000
Продолжительность : 26 м. 33 с.
Вид битрейта : Постоянный
Битрейт : 192 Кбит/сек
Каналы : 2 канала
Channel layout : L R
Частота : 48,0 КГц
Частота кадров : 31,250 кадров/сек (1536 SPF)
Метод сжатия : С потерями
Размер потока : 36,5 Мбайт (9%)
Выравнивание : Разделение по промежуткам
Продолжительность промежутка : 42 мс. (1,00 видеокадр)
Время предзагрузки промежутка : 500 мс.
Service kind : Complete Main
Аудио #2
Идентификатор : 2
Формат : AC-3
Формат/Информация : Audio Coding 3
Коммерческое название : Dolby Digital
Идентификатор кодека : 2000
Продолжительность : 26 м. 32 с.
Вид битрейта : Постоянный
Битрейт : 192 Кбит/сек
Каналы : 2 канала
Channel layout : L R
Частота : 48,0 КГц
Частота кадров : 31,250 кадров/сек (1536 SPF)
Метод сжатия : С потерями
Размер потока : 36,5 Мбайт (9%)
Выравнивание : Разделение по промежуткам
Продолжительность промежутка : 42 мс. (1,00 видеокадр)
Время предзагрузки промежутка : 500 мс.
Service kind : Complete Main
Общее
Полное имя : D:\WandaVision (Season 1) AlexFilm WEB-DLRip\WandaVision.S01E08.WEB-DLRip.AlexFilm.RGzsRutracker.[Wentworth_Miller].avi
Формат : AVI
Формат/Информация : Audio Video Interleave
Размер файла : 651 Мбайт
Продолжительность : 43 м. 21 с.
Общий поток : 2 098 Кбит/сек
Программа кодирования : VirtualDubMod 1.5.10.3 | www.virtualdub-fr.org || (build 2550/release)
Библиотека кодирования : VirtualDubMod build 2550/release
Видео
Идентификатор : 0
Формат : MPEG-4 Visual
Профиль формата : Advanced [email protected]
Настройки формата : BVOP1 / Custom Matrix
Параметр BVOP формата : 1
Параметр QPel формата : Нет
Параметр GMC формата : Без точки перехода
Параметр матрицы формата : Выборочная
Идентификатор кодека : XVID
Идентификатор кодека/Подсказка : XviD
Продолжительность : 43 м. 21 с.
Битрейт : 1 700 Кбит/сек
Ширина : 720 пикселей
Высота : 304 пикселя
Соотношение сторон : 2,35:1
Частота кадров : 23,976 (24000/1001) кадра/сек
Цветовое пространство : YUV
Субдискретизация насыщенности : 4:2:0
Битовая глубина : 8 бит
Тип развёртки : Прогрессивная
Метод сжатия : С потерями
Бит/(Пиксели*Кадры) : 0.324
Размер потока : 527 Мбайт (81%)
Библиотека кодирования : XviD 69
Аудио #1
Идентификатор : 1
Формат : AC-3
Формат/Информация : Audio Coding 3
Коммерческое название : Dolby Digital
Идентификатор кодека : 2000
Продолжительность : 43 м. 21 с.
Вид битрейта : Постоянный
Битрейт : 192 Кбит/сек
Каналы : 2 канала
Channel layout : L R
Частота : 48,0 КГц
Частота кадров : 31,250 кадров/сек (1536 SPF)
Метод сжатия : С потерями
Размер потока : 59,5 Мбайт (9%)
Выравнивание : Разделение по промежуткам
Продолжительность промежутка : 42 мс. (1,00 видеокадр)
Время предзагрузки промежутка : 500 мс.
Service kind : Complete Main
Аудио #2
Идентификатор : 2
Формат : AC-3
Формат/Информация : Audio Coding 3
Коммерческое название : Dolby Digital
Идентификатор кодека : 2000
Продолжительность : 43 м. 21 с.
Вид битрейта : Постоянный
Битрейт : 192 Кбит/сек
Каналы : 2 канала
Channel layout : L R
Частота : 48,0 КГц
Частота кадров : 31,250 кадров/сек (1536 SPF)
Метод сжатия : С потерями
Размер потока : 59,5 Мбайт (9%)
Выравнивание : Разделение по промежуткам
Продолжительность промежутка : 42 мс. (1,00 видеокадр)
Время предзагрузки промежутка : 500 мс.
Service kind : Complete Main
--Релиз группы:


Display posts:    

Current time is: 14-May 07:49

All times are UTC ± 0


You cannot post new topics in this forum
You cannot reply to topics in this forum
You cannot edit your posts in this forum
You cannot delete your posts in this forum
You cannot vote in polls in this forum
You cannot attach files in this forum
You cannot download files in this forum

!ATTENTION!
The site does not give electronic versions of products, and is engaged only in a collecting and cataloguing of the references sent and published at a forum by our readers. If you are the legal owner of any submitted material and do not wish that the reference to it was in our catalogue, contact us and we shall immediately remove her. Files for an exchange on tracker are given by users of a site, and the administration does not bear the responsibility for their maintenance. The request to not fill in the files protected by copyrights, and also files of the illegal maintenance!