Ивановский Торрент трекер
Яндекс.Погода
 

[Quote]
HUNTER

Тайна третьей планеты-Страна: СССР
Студия: Союзмультфильм
Жанр: мультфильм, детский, научная фантастика, приключения, экранизация
Год выпуска: 1981
Продолжительность: 00:49:21-Режиссер: Роман Качанов
Роли озвучивали: Ольга Громова, Всеволод Ларионов, Юрий Волынцев, Василий Ливанов, Григорий Шпигель, Пётр Вишняков, Владимир Дружников, Владимир Кенигсон, Юрий Андреев, Екатерина Краснобаева, Татьяна Маврина, Рина Зелёная, Николай Граббе, Игорь Ясулович, Роман Качанов (младший)-Описание: Экранизация повести Кира Булычёва «Путешествие Алисы» («Алиса и три капитана») из цикла «Приключения Алисы».
Приключения девочки Алисы, её ученого папы и меланхолика капитана Зелёного, а также добродушного чудовища Громозеки и птицы Говоруна, который, как известно, отличается умом и сообразительностью.-Доп. информация:
Исходник рипа - WEB 1080p
Звуковая дорожка с диска Золотая коллекция любимых мультфильмов. Выпуск 3-Релиз: -Семпл: http://sendfile.su/1590983-Тип релиза: WEBRip-AVC
Контейнер: MKV
Видео: 710x540 (4:3), 24.000 fps, AVC, ~2397 Kbps, 0.261 bits/pixel
Аудио: Русский, 48.0 KHz, AC3, 1 ch, 192 kbps - Оригинальный моно
Субтитры: нет

MediaInfo

General
Unique ID : 138213973936586126724804812344245964645 (0x67FB0B09803D839E67BA37F325314F65)
Complete name : Тайна.третьей.планеты.1981.WEBRip.AVC-RUTRACKER.mkv
Format : Matroska
Format version : Version 4
File size : 933 MiB
Duration : 49 min 21 s
Overall bit rate : 2 642 kb/s
Movie name : Тайна.третьей.планеты.1981.WEBRip.AVC-RUTRACKER
Encoded date : UTC 2021-01-09 15:15:09
Writing application : mkvmerge v43.0.0 ('The Quartermaster') 64-bit
Writing library : libebml v1.3.10 + libmatroska v1.5.2
Video
ID : 1
Format : AVC
Format/Info : Advanced Video Codec
Format profile : [email protected]
Format settings : CABAC / 16 Ref Frames
Format settings, CABAC : Yes
Format settings, Reference frames : 16 frames
Codec ID : V_MPEG4/ISO/AVC
Duration : 49 min 21 s
Bit rate : 2 448 kb/s
Width : 710 pixels
Height : 540 pixels
Display aspect ratio : 4:3
Frame rate mode : Constant
Frame rate : 24.000 FPS
Color space : YUV
Chroma subsampling : 4:2:0
Bit depth : 8 bits
Scan type : Progressive
Bits/(Pixel*Frame) : 0.266
Stream size : 864 MiB (93%)
Writing library : x264 core 160 r3007+53 ab26477 t_mod_New [(8 & 10)[email protected] X86_64]
Encoding settings : cabac=1 / ref=16 / deblock=1:-3:-3 / analyse=0x3:0x113 / me=umh / subme=11 / psy=1 / fade_compensate=0.00 / psy_rd=1.00:0.00 / mixed_ref=1 / me_range=48 / chroma_me=1 / trellis=2 / 8x8dct=1 / cqm=0 / deadzone=21,11 / fast_pskip=0 / chroma_qp_offset=-2 / threads=12 / lookahead_threads=3 / sliced_threads=0 / nr=0 / decimate=1 / interlaced=0 / bluray_compat=0 / constrained_intra=0 / fgo=0 / bframes=11 / b_pyramid=2 / b_adapt=2 / b_bias=0 / direct=3 / weightb=1 / open_gop=0 / weightp=2 / keyint=250 / keyint_min=24 / scenecut=40 / intra_refresh=0 / rc_lookahead=70 / rc=crf / mbtree=0 / crf=18.0000 / qcomp=0.60 / qpmin=0:0:0 / qpmax=69:69:69 / qpstep=4 / vbv_maxrate=50000 / vbv_bufsize=62500 / crf_max=0.0 / nal_hrd=none / filler=0 / ip_ratio=1.40 / pb_ratio=1.30 / aq=1:0.80 / aq-sensitivity=10.00 / aq-factor=1.00:1.00:1.00 / aq2=0 / aq3=0
Default : Yes
Forced : No
Color range : Limited
Color primaries : BT.709
Transfer characteristics : BT.709
Matrix coefficients : BT.709
Audio
ID : 2
Format : AC-3
Format/Info : Audio Coding 3
Commercial name : Dolby Digital
Codec ID : A_AC3
Duration : 49 min 21 s
Bit rate mode : Constant
Bit rate : 192 kb/s
Channel(s) : 1 channel
Channel layout : C
Sampling rate : 48.0 kHz
Frame rate : 31.250 FPS (1536 SPF)
Compression mode : Lossy
Stream size : 67.8 MiB (7%)
Language : Russian
Service kind : Complete Main
Default : Yes
Forced : No

Скриншоты



Display posts:    

Current time is: 21-Jan 21:50

All times are UTC ± 0


You cannot post new topics in this forum
You cannot reply to topics in this forum
You cannot edit your posts in this forum
You cannot delete your posts in this forum
You cannot vote in polls in this forum
You cannot attach files in this forum
You cannot download files in this forum

!ATTENTION!
The site does not give electronic versions of products, and is engaged only in a collecting and cataloguing of the references sent and published at a forum by our readers. If you are the legal owner of any submitted material and do not wish that the reference to it was in our catalogue, contact us and we shall immediately remove her. Files for an exchange on tracker are given by users of a site, and the administration does not bear the responsibility for their maintenance. The request to not fill in the files protected by copyrights, and also files of the illegal maintenance!