Ивановский Торрент трекер
Яндекс.Погода
 

[Quote]
HUNTER

Сон в замке демона / Maoujou de Oyasumi
Год выпуска: 2020
Страна: Япония
Жанр: комедия, фэнтези
Тип: TV
Продолжительность: 12 эп. по 24 мин.
Озвучка:
  • Трёхголосая (муж/жен) от Malevich & Nuts & Cleo-chan (AniLibria)
    Русские субтитры: есть (отдельным файлом, формат .ass)
    Перевод:
  • melhior.des, JoyMaloy [AniLibria] полные/надписи
    Хардсаб: Нет-Режиссер: Ямадзаки Мицуэ
    Студия: Doga Kobo
    Описание: В некотором царстве, в некотором государстве жили да поживали люди и демоны. Жили они себе не тужили, пока однажды злой и коварный король демонов не похитил человеческую принцессу! Все жители королевства были вне себя от горя и волнения. Принцесса Аврора, должно быть, находится в жуткой опасности! Страшно даже представить, что с ней творят демоны, как же ей, наверное, нелегко приходится!
    Авроре действительно приходится нелегко. Ведь в этом замке абсолютно нечем заняться! Только спать. Но и тут незадача — кровать неудобная, подушка не мягкая, маски для сна нет... Что делать, приходится искать выход из этой тяжёлой ситуации... Берегитесь, демоны! Когда Аврора пытается уснуть, лучше ей не мешать, а то сильно не поздоровится! Обитатели замка ещё сильно пожалеют о том, что решили похитить такую принцессу.
    Качество: Blu-Ray Remux
    Формат: MKV
    Видео кодек: AVC
    Аудио кодек: FLAC
    Видео: 1920x1080 (16:9) 23,976 fps ~32,32 Mbps 8bit
    Аудио:
    Jap FLAC, 48000Hz, ~1462 Kbps, 2ch
    RUS (ext) AAC, 48000Hz, ~128 Kbps, 2ch
    Чаптеры присутствуют.

    Список эпизодов

    01. Как уснуть в замке Демонов
    02. Принцесса и пух ярости
    03. Принцесса и запретное знание
    04. Принцесса разрушения и короткое приключение

    05. Принцесса и девушки-войны
    06. Непоколебимый Выбор Принцессы
    07. EщЁ больше бессонной принцессы
    08.
    09.
    10.
    11.
    12.

    MediaInfo

    Общее
    Уникальный идентификатор : 129799998404923948378233216548647870911 (0x61A69203D48F01BA4FF6DA95CF0E21BF)
    Полное имя : Z:\Anime Release - working\Maoujou de Oyasumi\[anti-raws]Maoujou de Oyasumi ep.01[BDRemux].mkv
    Формат : Matroska
    Версия формата : Version 4 / Version 2
    Размер файла : 5,61 Гбайт
    Продолжительность : 23 м. 51 с.
    Режим общего битрейта : Переменный
    Общий поток : 33,7 Мбит/сек
    Дата кодирования : UTC 2021-03-02 20:10:11
    Программа кодирования : mkvmerge v52.0.0 ('Secret For The Mad') 64-bit
    Библиотека кодирования : libebml v1.4.1 + libmatroska v1.6.2
    Видео
    Идентификатор : 2
    Формат : AVC
    Формат/Информация : Advanced Video Codec
    Профиль формата : [email protected]
    Настройки формата : CABAC / 4 Ref Frames
    Параметр CABAC формата : Да
    Параметр RefFrames формата : 4 кадра
    Идентификатор кодека : V_MPEG4/ISO/AVC
    Продолжительность : 23 м. 51 с.
    Вид битрейта : Переменный
    Битрейт : 32,3 Мбит/сек
    Максимальный битрейт : 37,7 Мбит/сек
    Ширина : 1920 пикселей
    Высота : 1080 пикселей
    Соотношение сторон : 16:9
    Режим частоты кадров : Постоянный
    Частота кадров : 23,976 (24000/1001) кадра/сек
    Стандарт вещания : Component
    Цветовое пространство : YUV
    Субдискретизация насыщенности : 4:2:0
    Битовая глубина : 8 бит
    Тип развёртки : Прогрессивная
    Бит/(Пиксели*Кадры) : 0.650
    Размер потока : 5,37 Гбайт (96%)
    Библиотека кодирования : x264 core 155
    Настройки программы : cabac=1 / ref=4 / deblock=1:0:0 / analyse=0x3:0x133 / me=umh / subme=9 / psy=1 / psy_rd=1.00:0.00 / mixed_ref=1 / me_range=16 / chroma_me=1 / trellis=2 / 8x8dct=1 / cqm=1 / deadzone=21,11 / fast_pskip=1 / chroma_qp_offset=-2 / threads=24 / lookahead_threads=2 / sliced_threads=0 / slices=4 / nr=0 / decimate=1 / interlaced=0 / minigop=1 / stitchable=1 / constrained_intra=0 / bframes=3 / b_pyramid=0 / b_adapt=2 / b_bias=0 / direct=3 / weightb=1 / open_gop=1 / weightp=1 / keyint=24 / keyint_min=1 / scenecut=40 / intra_refresh=0 / rc_lookahead=24 / rc=2pass / mbtree=1 / bitrate=32299 / ratetol=1.0 / qcomp=0.60 / qpmin=3 / qpmax=69 / qpstep=4 / cplxblur=20.0 / qblur=0.5 / vbv_maxrate=37696 / vbv_bufsize=30000 / nal_hrd=vbr / filler=0 / ip_ratio=1.40 / aq=1:1.00
    Default : Нет
    Forced : Нет
    Цветовой диапазон : Limited
    Основные цвета : BT.709
    Характеристики трансфера : BT.709
    Коэффициенты матрицы : BT.709
    Аудио
    Идентификатор : 1
    Формат : FLAC
    Формат/Информация : Free Lossless Audio Codec
    Идентификатор кодека : A_FLAC
    Продолжительность : 23 м. 51 с.
    Вид битрейта : Переменный
    Битрейт : 1462 Кбит/сек
    Каналы : 2 канала
    Расположение каналов : Front: L R
    Частота : 48,0 КГц
    Частота кадров : 11,719 кадров/сек (4096 SPF)
    Битовая глубина : 24 бит
    Размер потока : 249 Мбайт (4%)
    Библиотека кодирования : libFLAC 1.2.1 (UTC 2007-09-17)
    Язык : Japanese
    Default : Да
    Forced : Нет
    Меню
    00:00:00.000 : :Глава 01
    00:04:44.034 : :Глава 02
    00:06:13.957 : :Глава 03
    00:13:41.988 : :Глава 04
    00:21:59.026 : :Глава 05
    00:23:28.991 : :Глава 06
    00:23:34.997 : :Глава 07

    Скриншоты

    Отличия от существующих раздач

    https://rutracker.org/forum/viewtopic.php?t=5971165
    --WEBRip
    Эта раздача - BDRemux


  • Display posts:    

    Current time is: 14-May 07:35

    All times are UTC ± 0


    You cannot post new topics in this forum
    You cannot reply to topics in this forum
    You cannot edit your posts in this forum
    You cannot delete your posts in this forum
    You cannot vote in polls in this forum
    You cannot attach files in this forum
    You cannot download files in this forum

    !ATTENTION!
    The site does not give electronic versions of products, and is engaged only in a collecting and cataloguing of the references sent and published at a forum by our readers. If you are the legal owner of any submitted material and do not wish that the reference to it was in our catalogue, contact us and we shall immediately remove her. Files for an exchange on tracker are given by users of a site, and the administration does not bear the responsibility for their maintenance. The request to not fill in the files protected by copyrights, and also files of the illegal maintenance!