Ивановский Торрент трекер
Яндекс.Погода
 

[Quote]
HUNTER

Сказ о Петре и Февронии
Страна: Россия
Жанр: мультфильм
Продолжительность: 01:17:59
Год выпуска: 2017
Русские субтитры: нет
Режиссёр: Юрий Рязанов, Юрий Кулаков
Роли озвучивали: Владислав Юдин
Юлия Горохова
Иван Охлобыстин
Владимир Антоник
Константин Карасик
Виктор Вержбицкий
Диомид Виноградов
Вадим Медведев
Арзу Сулейманова
Сергей Усков
Описание: XIII век. Злодей захватил власть в Муромском княжестве. Только отважный воин Петр выходит на бой со злодеем и побеждает его. Но ядовитая кровь колдуна отравляет спасителя княжества. Целительница Феврония готова применить свой дар, чтобы спасти Петра. Между молодыми людьми вспыхивает настоящее чистое чувство, которое им предстоит сохранить, несмотря на множество препятствий.
Доп. информация: https://www.kinopoisk.ru/film/skaz-o-petre-i-fevronii-2017-934220/
Семпл: http://sendfile.su/1395847
Качество: WEB-DLRip найдено в сети
Формат: AVI
Видео: 688x384 (1.79:1), 25 fps, XviD build 73 ~1193 kbps avg, 0.18 bit/pixel
Аудио: 48 kHz, MPEG Layer 3, 2 ch, ~128.00 kbps avg
Субтитры: отсутствуют

Подробные технические данные

General
Complete name : D:\Skaz_O_Petre_I_Fevronii_2017_WEB-DLRip_Original_Rus.avi
Format : AVI
Format/Info : Audio Video Interleave
File size : 743 MiB
Duration : 1h 17mn
Overall bit rate : 1 331 Kbps
Video
ID : 0
Format : MPEG-4 Visual
Format profile : Advanced [email protected]
Format settings, BVOP : 1
Format settings, QPel : No
Format settings, GMC : No warppoints
Format settings, Matrix : Custom
Codec ID : XVID
Codec ID/Hint : XviD
Duration : 1h 17mn
Bit rate : 1 194 Kbps
Width : 688 pixels
Height : 384 pixels
Display aspect ratio : 16:9
Frame rate : 25.000 fps
Color space : YUV
Chroma subsampling : 4:2:0
Bit depth : 8 bits
Scan type : Progressive
Compression mode : Lossy
Bits/(Pixel*Frame) : 0.181
Stream size : 666 MiB (90%)
Writing library : XviD 73
Audio
ID : 1
Format : MPEG Audio
Format version : Version 1
Format profile : Layer 3
Codec ID : 55
Codec ID/Hint : MP3
Duration : 1h 17mn
Bit rate mode : Constant
Bit rate : 128 Kbps
Channel count : 2 channels
Sampling rate : 48.0 KHz
Compression mode : Lossy
Stream size : 71.4 MiB (10%)
Alignment : Aligned on interleaves
Interleave, duration : 40 ms (1.00 video frame)
Interleave, preload duration : 504 ms
Writing library : LAME3.100

Скриншоты



Display posts:    

Current time is: 12-Jun 23:13

All times are UTC ± 0


You cannot post new topics in this forum
You cannot reply to topics in this forum
You cannot edit your posts in this forum
You cannot delete your posts in this forum
You cannot vote in polls in this forum
You cannot attach files in this forum
You cannot download files in this forum

!ATTENTION!
The site does not give electronic versions of products, and is engaged only in a collecting and cataloguing of the references sent and published at a forum by our readers. If you are the legal owner of any submitted material and do not wish that the reference to it was in our catalogue, contact us and we shall immediately remove her. Files for an exchange on tracker are given by users of a site, and the administration does not bear the responsibility for their maintenance. The request to not fill in the files protected by copyrights, and also files of the illegal maintenance!