Ивановский Торрент трекер
Яндекс.Погода
 

[Quote]
HUNTER

Сельский детектив. Ограбление по-ольховски
Год выпуска: 2020
Производство: ТПО "Сила"
Жанр: детектив
Продолжительность: ~00:44:00 серия
Субтитры: нет
Режиссёр: Валерий Девятилов
В ролях: Олеся Фаттахова, Алексей Демидов, Данила Якушев, Елена Цыплакова, Павел Белозёров, Александр Пашутин, Надежда Бахтина, Серафима Соловьёва, Вячеслав Синявский, Владимир Крылов, Евгения Голубева, Сергей Грищенко, Сергей Астахов, Денис Бондарков

Описание: Каждый советский человек знает, что поход в баню может обернуться катастрофой. Но Кузьма слишком молод, вот и не остерёгся. В результате, пока они с друзьями парились и угощались раками, кто-то похитил у опера табельный пистолет. Только как? Баня-то была закрыта изнутри! Мужики в чём мать родила – пистолета при них нет… Помочь может только Олеся, вот только на её личной жизни это грозит поставить крест: Гриша, который давно недоволен её сотрудничеством с Кузьмой, совсем не готов понять их совместных следственных действий в бане. Между тем, пистолет Кузьмы всплывает в неожиданном месте: совершено вооружённое нападение на ольховский магазин…

Реклама: Нет.
Кино-театр
Все раздачи сериала
Sample
Релиз - Files-x
Качество: WEBRip
Формат: AVI
Видео кодек: XviD
Аудио кодек: AC3
Видео: 720x400 (1.80:1), 25 fps, XviD ~1600 kbps avg, 0.222 bit/pixel
Аудио: 48.0 kHz, AC3 Dolby Digital, 2/0 (L,R) ch, ~ 192 kbps

MI

General
Complete name : D:\Ограбление по-ольховски.2020. WEB-DLRip.Files-x\01. Ограбление по-ольховски.2020. WEB-DLRip.Files-x.avi
Format : AVI
Format/Info : Audio Video Interleave
File size : 573 MiB
Duration : 44 min 31 s
Overall bit rate : 1 801 kb/s
Writing application : VirtualDubMod 1.5.10.3 | www.virtualdub-fr.org || (build 2550/release)
Writing library : VirtualDubMod build 2550/release
Video
ID : 0
Format : MPEG-4 Visual
Format profile : Advanced [email protected]
Format settings : BVOP1 / Custom Matrix
Format settings, BVOP : 1
Format settings, QPel : No
Format settings, GMC : No warppoints
Format settings, Matrix : Custom
Codec ID : XVID
Codec ID/Hint : XviD
Duration : 44 min 31 s
Bit rate : 1 599 kb/s
Width : 720 pixels
Height : 400 pixels
Display aspect ratio : 16:9
Frame rate : 25.000 FPS
Color space : YUV
Chroma subsampling : 4:2:0
Bit depth : 8 bits
Scan type : Progressive
Compression mode : Lossy
Bits/(Pixel*Frame) : 0.222
Stream size : 509 MiB (89%)
Writing library : XviD 73
Audio
ID : 1
Format : AC-3
Format/Info : Audio Coding 3
Codec ID : 2000
Duration : 44 min 31 s
Bit rate mode : Constant
Bit rate : 192 kb/s
Channel(s) : 2 channels
Channel positions : Front: L R
Sampling rate : 48.0 kHz
Frame rate : 31.250 FPS (1536 SPF)
Bit depth : 16 bits
Compression mode : Lossy
Stream size : 61.1 MiB (11%)
Alignment : Split accross interleaves
Interleave, duration : 40 ms (1.00 video frame)
Interleave, preload duratio : 500 ms
Service kind : Complete Main

Скриншоты




Display posts:    

Current time is: 27-Nov 20:55

All times are UTC ± 0


You cannot post new topics in this forum
You cannot reply to topics in this forum
You cannot edit your posts in this forum
You cannot delete your posts in this forum
You cannot vote in polls in this forum
You cannot attach files in this forum
You cannot download files in this forum

!ATTENTION!
The site does not give electronic versions of products, and is engaged only in a collecting and cataloguing of the references sent and published at a forum by our readers. If you are the legal owner of any submitted material and do not wish that the reference to it was in our catalogue, contact us and we shall immediately remove her. Files for an exchange on tracker are given by users of a site, and the administration does not bear the responsibility for their maintenance. The request to not fill in the files protected by copyrights, and also files of the illegal maintenance!