Ивановский Торрент трекер
Яндекс.Погода
 

[Quote]
HUNTER

Родители / Parenthood
Год выпуска: 2014
Страна: США
Жанр: комедия, семейная драма
Продолжительность: ~42 мин
Перевод: Субтитры Notabenoid
Русские субтитры: есть
Режиссёр: Лоуренс Триллинг, Патрик Р. Норрис, Кен Уиттингэм
В ролях: Питер Краузе, Лорен Грэм, Дэкс Шепард, Моника Поттер, Эрика Кристенсен, Сэм Джагер, Саванна Пэйдж Рэй, Макс Буркхолдер, Джой Брайант, Майлс Хейзер
Описание: Саре Брейверман с двумя детьми — дочерью Амбер и сыном Дрю из-за материальных трудностей пришлось переехать из Фресно в домик родителей в калифорнийском Беркли — отца Зика и матери Камилы, которые тоже испытывают сложности с финансами.
Там до сих пор живут ее сестра с братьями — Джулия, Кросби и Адам, каждый из которых борется со своими собственными проблемами.
Доп. информация: 11 мая 2014 года было объявлено, что сериал продлен на финальный, шестой сезон.
Ссылка на предыдущие и альтернативные раздачи
Сэмпл
Качество: HDTVRip-AVC
Формат: MP4
Видео: H.264, 720x404 (16:9), 23.976 fps, 843 kbps, 0.121 bit/pixel
Аудио: AAC, 48 kHz, 2 channels, 114 kbps
Субтитры: внешние, SRT (rus)

MediaInfo

Общее
Полное имя : Parenthood.2010.S06E01.HDTV.x264-LOL.mp4
Формат : MPEG-4
Профиль формата : Base Media
Идентификатор кодека : isom
Размер файла : 293 Мбайт
Продолжительность : 42 м.
Режим общего битрейта : Переменный
Общий поток : 961 Кбит/сек
Дата кодирования : UTC 2014-09-26 01:51:35
Дата пометки : UTC 2014-09-26 01:51:35
Видео
Идентификатор : 1
Формат : AVC
Формат/Информация : Advanced Video Codec
Профиль формата : [email protected]
Параметр CABAC формата : Да
Параметр ReFrames формата : 5 кадров
Идентификатор кодека : avc1
Идентификатор кодека/Информация : Advanced Video Coding
Продолжительность : 42 м.
Битрейт : 843 Кбит/сек
Максимальный битрейт : 3179 Кбит/сек
Ширина : 720 пикселей
Высота : 404 пикселя
Соотношение сторон : 16:9
Режим частоты кадров : Постоянный
Частота кадров : 23,976 кадра/сек
Цветовое пространство : YUV
Субдискретизация насыщенности : 4:2:0
Битовая глубина : 8 бит
Тип развёртки : Прогрессивная
Бит/(Пиксели*Кадры) : 0.121
Размер потока : 257 Мбайт (88%)
Библиотека кодирования : x264 core 142 r2479 dd79a61
Настройки программы : cabac=1 / ref=5 / deblock=1:1:1 / analyse=0x3:0x133 / me=umh / subme=9 / psy=1 / psy_rd=1.00:0.00 / mixed_ref=1 / me_range=16 / chroma_me=1 / trellis=2 / 8x8dct=1 / cqm=0 / deadzone=21,11 / fast_pskip=0 / chroma_qp_offset=-2 / threads=16 / lookahead_threads=1 / sliced_threads=0 / nr=0 / decimate=1 / interlaced=0 / bluray_compat=0 / constrained_intra=0 / bframes=3 / b_pyramid=2 / b_adapt=2 / b_bias=0 / direct=3 / weightb=1 / open_gop=0 / weightp=2 / keyint=250 / keyint_min=23 / scenecut=40 / intra_refresh=0 / rc_lookahead=60 / rc=crf / mbtree=1 / crf=19.0 / qcomp=0.60 / qpmin=0 / qpmax=69 / qpstep=4 / ip_ratio=1.40 / aq=1:1.00
Дата кодирования : UTC 2014-09-26 01:26:47
Дата пометки : UTC 2014-09-26 01:51:37
Коэффициенты матрицы : BT.709
Аудио
Идентификатор : 2
Формат : AAC
Формат/Информация : Advanced Audio Codec
Профиль формата : LC
Идентификатор кодека : 40
Продолжительность : 42 м.
Вид битрейта : Переменный
Битрейт : 114 Кбит/сек
Максимальный битрейт : 150 Кбит/сек
Каналы : 2 канала
Расположение каналов : Front: L R
Частота : 48,0 КГц
Метод сжатия : С потерями
Размер потока : 34,8 Мбайт (12%)
Дата кодирования : UTC 2014-09-26 01:51:36
Дата пометки : UTC 2014-09-26 01:51:37

Скриншоты

Внимание! Раздача ведётся путём добавления новых серий!

Внимание! Раздача ведётся путём добавления новых серий; при каждом добавлении создаётся новый торрент. Чтобы начать докачку новой серии, пользователям необходимо сделать следующее: (1) остановить скачивание, (2) удалить старый торрент у себя из клиента (старые серии удалять не надо), (3) скачать новый торрент и запустить его у себя в клиенте вместо старого, при этом указать клиенту путь в старую папку куда и должно происходить скачивание новых серий.
Ваш клиент при этом должен произвести хеширование (проверку) старой папки (если не производит сам - помогите ему сделать это), и будет докачивать только те серии которых у вас ещё нет. Старые серии при этом не удаляются, а продолжают раздаваться!
Если вы уже удалили старые серии, то предотвратить повторную закачку старых серий можно, отжав галочку в соответствующих местах при запуске нового торрента.
Добавлена 13, заключительная серия


Display posts:    

Current time is: 26-Feb 04:46

All times are UTC ± 0


You cannot post new topics in this forum
You cannot reply to topics in this forum
You cannot edit your posts in this forum
You cannot delete your posts in this forum
You cannot vote in polls in this forum
You cannot attach files in this forum
You cannot download files in this forum

!ATTENTION!
The site does not give electronic versions of products, and is engaged only in a collecting and cataloguing of the references sent and published at a forum by our readers. If you are the legal owner of any submitted material and do not wish that the reference to it was in our catalogue, contact us and we shall immediately remove her. Files for an exchange on tracker are given by users of a site, and the administration does not bear the responsibility for their maintenance. The request to not fill in the files protected by copyrights, and also files of the illegal maintenance!