Ивановский Торрент трекер
Яндекс.Погода
 

[Quote]
HUNTER

Air Crash Investigation / Mayday / Расследования авиакатастроф / The Accident Files season 3 (2020) (1-4 серии из 10)
Год выпуска: 2020
Страна: Канада
Жанр: документальный
Продолжительность: ~ 00:44:00
Перевод: Профессиональный (двухголосый закадровый)
Русские субтитры: нет
Описание: Сериал о наиболее громких и загадочных катастрофах в истории гражданской авиации.
Наиболее полную информацию о сериале можно получить здесь List of Mayday episodes, для фанатов рекомендую именно этот сайт.
Есть русская, более лаконичная версия Список эпизодов телесериала «Расследования авиакатастроф»
Снимался канадской студией Cineflix в партнерстве с Discovery Channel (Canada), Canal D (Canada), and National Geographic Channel (US & International).
Доп. информация: Видеоматериал предоставил StomperX
Сэмпл: https://www.sendspace.com/file/ea2kd9
Качество: DVB
формат: MPG
Видео: 720х[email protected]х576 (1,78:1), 25 fps, mpeg2 ~3183 kbps avg, 0.307 bit/pixel
Аудио 1: Russian (48 KHz, MP2, 2 ch, ~192 Kbps) (двухголосый)
Аудио 2: English (48 KHz, MP2, 2 ch, ~192 Kbps) (двухголосый)
сезон 14 DVB
сезон 15 DVB
сезон 16 DVB
сезон 17 DVB
сезон 18 & The Accident Files сезон 1 DVB
сезон 19 DVB
The Accident Files сезон 2 (2019) DVB
сезон 20 DVB
The Accident Files сезон 3 (2020) DVB
сезоны 1-20 HDRip (MKV)
сезоны 1-20 HD 720p (MKV)
сезон 05 HDTV 1080i (MKV)
сезон 17 HDTV 1080i (MKV)
сезон 18 & The Accident Files сезон 1 HDTV 1080i (MKV)
сезон 19 HDTV 1080i (MKV)
The Accident Files сезон 2 (2019) HDTV 1080i (MKV)
сезон 20 HDTV 1080i (MKV)
The Accident Files сезон 3 (2020) HDTV 1080i (MPEG-TS)
сезоны 05, 10, 11, 12, 14, 16-20 & The Accident Files seasons 1,2 HDTV 1080i (MKV)

Список выпусков/серий

20-11. Смелость в кабине пилота (Courage in the Cockpit)
20-12. Смерть с небес (Death from Above)
20-13. Выжившие (Survivors)
20-14. Сбой в системе безопасности (Lapse in Security)

MediaInfo

Общее
Полное имя : G:\КИНО\The Accident Files season 3 (2020)_DVB\20-11. Смелость в кабине пилота (Courage in the Cockpit).mpg
Формат : MPEG-PS
Размер файла : 1,12 Гбайт
Продолжительность : 43 м. 58 с.
Режим общего битрейта : Переменный
Общий поток : 3 640 Кбит/сек
Видео
Идентификатор : 224 (0xE0)
Формат : MPEG Video
Версия формата : Version 2
Профиль формата : [email protected]
Настройки формата : CustomMatrix
Параметр BVOP формата : Нет
Параметр матрицы формата : Выборочная
Параметр GOP формата : Variable
Структура изображения : Frame
Продолжительность : 43 м. 58 с.
Вид битрейта : Переменный
Битрейт : 3 183 Кбит/сек
Максимальный битрейт : 3 300 Кбит/сек
Ширина : 720 пикселей
Высота : 576 пикселей
Соотношение сторон : 16:9
Описание активного формата : Full frame 16:9 image
Частота кадров : 25,000 кадров/сек
Стандарт вещания : PAL
Цветовое пространство : YUV
Субдискретизация насыщенности : 4:2:0
Битовая глубина : 8 бит
Тип развёртки : Чересстрочная
Порядок развёртки : Верхнее поле первое
Метод сжатия : С потерями
Бит/(Пиксели*Кадры) : 0.307
Временной код первого кадра : 00:00:00:00
Оригинал временного кода : Group of pictures header
GOP, открыто/закрыто : Открыто
Размер потока : 1 001 Мбайт (87%)
Аудио #1
Идентификатор : 192 (0xC0)
Формат : MPEG Audio
Версия формата : Version 1
Профиль формата : Layer 2
Продолжительность : 43 м. 58 с.
Вид битрейта : Постоянный
Битрейт : 192 Кбит/сек
Каналы : 2 канала
Частота : 48,0 КГц
Частота кадров : 41,667 кадра/сек (1152 SPF)
Метод сжатия : С потерями
Размер потока : 60,4 Мбайт (5%)
Аудио #2
Идентификатор : 193 (0xC1)
Формат : MPEG Audio
Версия формата : Version 1
Профиль формата : Layer 2
Продолжительность : 43 м. 58 с.
Вид битрейта : Постоянный
Битрейт : 192 Кбит/сек
Каналы : 2 канала
Частота : 48,0 КГц
Частота кадров : 41,667 кадра/сек (1152 SPF)
Метод сжатия : С потерями
Размер потока : 60,4 Мбайт (5%)

Скриншоты

Внимание! Раздача ведётся путём добавления новых выпусков

Внимание! Раздача ведётся путём добавления новых выпусков; при каждом добавлении создаётся новый торрент. Чтобы начать докачку нового выпуска, пользователям необходимо сделать следующее:
(1) остановить скачивание,
(2) удалить старый торрент у себя из клиента (старые серии удалять не надо),
(3) скачать новый торрент и запустить его у себя в клиенте вместо старого, при этом указать клиенту путь в старую папку куда и должно происходить скачивание новых выпусков.
Ваш клиент при этом должен произвести хеширование (проверку) старой папки (если не производит сам - помогите ему сделать это). В результате он будет докачивать только те выпуски, которых у Вас ещё нет. Старые выпуски при этом не удаляются, а продолжают раздаваться!
Eсли Вы уже удалили старые выпуски, то предотвратить их повторную закачку можно, сняв галочки в соответствующих местах при запуске нового торрента. По возможности, желательно не удалять старые выпуски как можно дольше, чтобы релизёр не только продолжал раздавать старые выпуски, но и смог сконцентрироваться на новых.


Display posts:    

Current time is: 29-Nov 02:15

All times are UTC ± 0


You cannot post new topics in this forum
You cannot reply to topics in this forum
You cannot edit your posts in this forum
You cannot delete your posts in this forum
You cannot vote in polls in this forum
You cannot attach files in this forum
You cannot download files in this forum

!ATTENTION!
The site does not give electronic versions of products, and is engaged only in a collecting and cataloguing of the references sent and published at a forum by our readers. If you are the legal owner of any submitted material and do not wish that the reference to it was in our catalogue, contact us and we shall immediately remove her. Files for an exchange on tracker are given by users of a site, and the administration does not bear the responsibility for their maintenance. The request to not fill in the files protected by copyrights, and also files of the illegal maintenance!