Ивановский Торрент трекер
Яндекс.Погода
 

[Quote]
HUNTER

Райя и последний дракон / Raya and the Last Dragon- Год выхода: 2021
Страна: США
Жанр: мультфильм, фэнтези, боевик, комедия, приключения, семейный
Продолжительность: 01:47:28
Перевод: Профессиональный (полное дублирование) Line
Субтитры: Русские (полные - FOCS), Английские (полные - SDH)
Оригинальная аудиодорожка: Английская-Режиссер:
Дон Холл, Карлос Лопес Эстрада, Пол Бриггс-В ролях:
Келли Мари Трэн, Алан Тьюдик, Джемма Чан, Аквафина, Росс Батлер, Дэниэл Дэ Ким, Сандра О, Бенедикт Вонг, Патти Харрисон, Люсиль Сун, Джона Сяо, Исаак Ванг, Талия Чан, Бен Хисолер-О фильме:
Отважной воительнице по имени Райя и её верному спутнику Тук-Туку предстоит покинуть родное королевство Кумандра, чтобы отыскать последнего оставшегося в мире дракона, и с его помощью вернуть надежду на победу над могущественным врагом.-Релиз групп | | IMDB | КиноПоиск | Сэмпл |-Качество: WEB-DLRip-AVC [DSNP]
Формат: MKV
Видео: 1108x464 (2,40:1), 23,976 fps, x264 ~2475 kbps avg, 0.201 bit/pixel
Аудио #1: 48 kHz, AC3 Dolby Digital, 2/0 (L,R) ch, ~192.00 kbps avg (RUS)
Аудио #2: 48 kHz, AC3 Dolby Digital, 2/0 (L,R) ch, ~192.00 kbps avg (ENG)
Формат субтитров: Softsub (.srt*)-

Скриншоты

-

MediaInfo

Код:Общее
Полное имя : E:\Raya_and_the_Last_Dragon_2021_WEB-DLRip-AVC_Line_by_Dalemake.mkv
Формат : Matroska
Версия формата : Version 2
Размер файла : 2,19 Гбайт
Продолжительность : 1 ч. 47 м.
Общий поток : 2 917 Кбит/сек
Название фильма : [Raya_and_the_Last_Dragon_2021_All_Films_Rutracker]
Дата кодирования : UTC 2021-03-07 10:10:10
Программа кодирования : mkvmerge v7.8.0 ('River Man') 32bit built on Apr 3 2015 12:11:22
Библиотека кодирования : libebml v1.3.1 + libmatroska v1.4.2
Видео
Идентификатор : 1
Формат : AVC
Формат/Информация : Advanced Video Codec
Профиль формата : [email protected]
Настройки формата : CABAC / 10 Ref Frames
Параметр CABAC формата : Да
Параметр RefFrames формата : 10 кадров
Идентификатор кодека : V_MPEG4/ISO/AVC
Продолжительность : 1 ч. 47 м.
Битрейт : 2 475 Кбит/сек
Ширина : 1 108 пикселей
Высота : 464 пикселя
Соотношение сторон : 2,40:1
Режим частоты кадров : Постоянный
Частота кадров : 23,976 кадра/сек
Цветовое пространство : YUV
Субдискретизация насыщенности : 4:2:0
Битовая глубина : 8 бит
Тип развёртки : Прогрессивная
Бит/(Пиксели*Кадры) : 0.201
Размер потока : 1,86 Гбайт (85%)
Заголовок : [Raya_and_the_Last_Dragon_2021_All_Films_Rutracker]
Библиотека кодирования : x264 core 160 r3009 4c9b076
Настройки программы : cabac=1 / ref=10 / deblock=1:-2:-2 / analyse=0x3:0x113 / me=umh / subme=11 / psy=1 / psy_rd=1.00:0.10 / mixed_ref=1 / me_range=32 / chroma_me=1 / trellis=2 / 8x8dct=1 / cqm=0 / deadzone=21,11 / fast_pskip=0 / chroma_qp_offset=-5 / threads=6 / lookahead_threads=1 / sliced_threads=0 / nr=0 / decimate=1 / interlaced=0 / bluray_compat=0 / constrained_intra=0 / bframes=9 / b_pyramid=2 / b_adapt=2 / b_bias=0 / direct=3 / weightb=1 / open_gop=0 / weightp=2 / keyint=240 / keyint_min=23 / scenecut=40 / intra_refresh=0 / rc_lookahead=60 / rc=crf / mbtree=0 / crf=18.7 / qcomp=0.60 / qpmin=0 / qpmax=69 / qpstep=4 / vbv_maxrate=78125 / vbv_bufsize=62500 / crf_max=0.0 / nal_hrd=none / filler=0 / ip_ratio=1.40 / pb_ratio=1.35 / aq=1:1.00
Язык : English
Default : Да
Forced : Нет
Duration_Source : General_Duration
Аудио #1
Идентификатор : 2
Формат : AC-3
Формат/Информация : Audio Coding 3
Коммерческое название : Dolby Digital
Идентификатор кодека : A_AC3
Продолжительность : 1 ч. 47 м.
Вид битрейта : Постоянный
Битрейт : 192 Кбит/сек
Каналы : 2 канала
Channel layout : L R
Частота : 48,0 КГц
Частота кадров : 31,250 кадров/сек (1536 SPF)
Метод сжатия : С потерями
Размер потока : 148 Мбайт (7%)
Заголовок : Dub - Line
Язык : Russian
Service kind : Complete Main
Default : Да
Forced : Нет
Duration_Source : General_Duration
Аудио #2
Идентификатор : 3
Формат : AC-3
Формат/Информация : Audio Coding 3
Коммерческое название : Dolby Digital
Идентификатор кодека : A_AC3
Продолжительность : 1 ч. 47 м.
Вид битрейта : Постоянный
Битрейт : 192 Кбит/сек
Каналы : 2 канала
Channel layout : L R
Частота : 48,0 КГц
Частота кадров : 31,250 кадров/сек (1536 SPF)
Метод сжатия : С потерями
Размер потока : 148 Мбайт (7%)
Заголовок : Original
Язык : English
Service kind : Complete Main
Default : Нет
Forced : Нет
Duration_Source : General_Duration
Текст #1
Идентификатор : 4
Формат : UTF-8
Идентификатор кодека : S_TEXT/UTF8
Идентификатор кодека/Информация : UTF-8 Plain Text
Заголовок : Full - FOCS
Язык : Russian
Default : Нет
Forced : Нет
Текст #2
Идентификатор : 5
Формат : UTF-8
Идентификатор кодека : S_TEXT/UTF8
Идентификатор кодека/Информация : UTF-8 Plain Text
Заголовок : Full - SDH
Язык : English
Default : Нет
Forced : Нет
-При появлении офф. дубляжа рип будет перезалит!-


Display posts:    

Current time is: 14-May 07:26

All times are UTC ± 0


You cannot post new topics in this forum
You cannot reply to topics in this forum
You cannot edit your posts in this forum
You cannot delete your posts in this forum
You cannot vote in polls in this forum
You cannot attach files in this forum
You cannot download files in this forum

!ATTENTION!
The site does not give electronic versions of products, and is engaged only in a collecting and cataloguing of the references sent and published at a forum by our readers. If you are the legal owner of any submitted material and do not wish that the reference to it was in our catalogue, contact us and we shall immediately remove her. Files for an exchange on tracker are given by users of a site, and the administration does not bear the responsibility for their maintenance. The request to not fill in the files protected by copyrights, and also files of the illegal maintenance!