Ивановский Торрент трекер
Яндекс.Погода
 

[Quote]
HUNTER

Пятница 13-е – Часть 3Friday the 13th Part III
«Присоединяйтесь к Джейсону в лесу... если отважитесь.»
- Год выпуска: 1982
Страна: США (Jason Productions Inc., Paramount Pictures)
Жанр: ужасы, триллер
Продолжительность: 01:35:25
Перевод: Профессиональный (многоголосый закадровый) - СВ-Дубль (2017г)
Режиссер: Стив Майнер / Steve Miner-В ролях: Дэна Киммелл (Крис), Пол Кратка (Рик), Трейси Сэвадж (Дебби), Джеффри Роджерс (Энди), Катрин Паркс (Вера), Ларри Зернер (Шелли), Дэвид Катимс (Чак), Рэйчел Ховард (Чили), Ричард Брукер (Джейсон), Глория Чарльз (Фокс), Ник Сэвадж (Али), Кевин О’Брайэн (Локо), Шери Моганс (Эдна), Стив Сусскинд (Харольд)-Описание: Летние каникулы превращаются в чудовищный кровавый кошмар для очередной группы наивных и беспечных молодых людей, которые оказались во власти зловещего проклятия лагеря «Хрустальное озеро». Джейсон Вурхиз снова здесь, и он хочет крови!
Сначала он будет изобретать новые изощренные способы убийства, а потом, через прорези хоккейной маски, будет наблюдать за страшной агонией своих жертв!
-Доп. инфо:
  • Исходник - официальный BD 3D/2D - https://www.blu-ray.com/movies/Friday-the-13th-Collection-Blu-ray/272680/
  • Видео отличается от более раннего HDRip'а кадрированием, цвето-яркостными характеристиками и чёткостью.
  • Около 6-ти минут начала фильма видео в 2Д (так сделано авторами фильма).
  • Русская аудиодорога получена вставкой вырезанных фраз в центр оригинала (за исходник русской дороги спасибо flaSI-I!).-Премьера (мир): 13 августа 1982
    Бюджет: $2 300 000
    Кассовые сборы: $36 690 067

    . .
    -Качество: BDRip (by Ash61)
    Контейнер: MKV
    Формат 3D: Half OverUnder / Вертикальная анаморфная стереопара
    Порядок ракурсов: левый ракурс первый-Видео: AVC / 1920х1080p / 23,976 fps / 16.0 Mbps
    Аудио:
    #1 - Русский / AC3 / 48 KHz / 5.1 ch / 640 Kbps (MVO - СВ-Дубль (2017)) (перемонтаж - Ash61)
    #2 - Английский / AC3 / 48 KHz / 5.1 ch / 640 Kbps (Original)
    Субтитры (SRT):
    Вшитые (softsub):
    #1 - Русские Форсированные (включены по умолчанию)
    #2 - English Full
    #3 - English SDH (BD 3D)
    Внешние (UTF-8):
    #1 - Русские Форсированные (включены по умолчанию)

MediaInfo

General
Unique ID : 243267835001875109881289291298274870385 (0xB703AE487DE3EB718AB46588FA8D0471)
Complete name : D:\FridayThe13th.PartIII(1982)3D-hOU(Ash61)\FridayThe13th.PartIII(1982)3D-hOU(Ash61).mkv
Format : Matroska
Format version : Version 2
File size : 11.5 GiB
Duration : 1 h 35 min
Overall bit rate : 17.3 Mb/s
Movie name : Пятница 13-е — Часть 3 / Friday the 13th: Part III (1982) in 3D
Encoded date : UTC 2020-10-10 10:44:30
Writing application : mkvmerge v5.8.0 ('No Sleep / Pillow') built on Sep 2 2012 15:37:04
Writing library : libebml v1.2.3 + libmatroska v1.3.0
Video
ID : 1
Format : AVC
Format/Info : Advanced Video Codec
Format profile : [email protected]
Format settings : CABAC / 4 Ref Frames
Format settings, CABAC : Yes
Format settings, Reference : 4 frames
Codec ID : V_MPEG4/ISO/AVC
Duration : 1 h 35 min
Bit rate : 16.0 Mb/s
Width : 1 920 pixels
Height : 1 080 pixels
Display aspect ratio : 16:9
Frame rate mode : Constant
Frame rate : 23.976 (24000/1001) FPS
Color space : YUV
Chroma subsampling : 4:2:0
Bit depth : 8 bits
Scan type : Progressive
Bits/(Pixel*Frame) : 0.322
Stream size : 10.4 GiB (91%)
Title : BDRip by Ash61
Writing library : x264 core 146 r2538 121396c
Encoding settings : cabac=1 / ref=4 / deblock=1:-3:-3 / analyse=0x3:0x113 / me=umh / subme=10 / psy=1 / psy_rd=1.00:0.00 / mixed_ref=1 / me_range=32 / chroma_me=1 / trellis=2 / 8x8dct=1 / cqm=0 / deadzone=21,11 / fast_pskip=0 / chroma_qp_offset=-2 / threads=12 / lookahead_threads=3 / sliced_threads=0 / nr=0 / decimate=0 / interlaced=0 / bluray_compat=0 / constrained_intra=0 / bframes=10 / b_pyramid=2 / b_adapt=2 / b_bias=0 / direct=3 / weightb=1 / open_gop=0 / weightp=2 / keyint=250 / keyint_min=23 / scenecut=40 / intra_refresh=0 / rc_lookahead=60 / rc=2pass / mbtree=0 / bitrate=16000 / ratetol=1.0 / qcomp=0.70 / qpmin=0 / qpmax=69 / qpstep=4 / cplxblur=20.0 / qblur=0.5 / vbv_maxrate=40000 / vbv_bufsize=30000 / nal_hrd=none / filler=0 / frame-packing=4 / ip_ratio=1.40 / pb_ratio=1.30 / aq=1:0.70
Language : English
Default : Yes
Forced : No
Audio #1
ID : 2
Format : AC-3
Format/Info : Audio Coding 3
Commercial name : Dolby Digital
Codec ID : A_AC3
Duration : 1 h 35 min
Bit rate mode : Constant
Bit rate : 640 kb/s
Channel(s) : 6 channels
Channel layout : L R C LFE Ls Rs
Sampling rate : 48.0 kHz
Frame rate : 31.250 FPS (1536 SPF)
Compression mode : Lossy
Stream size : 437 MiB (4%)
Title : MVO - СВ-Дубль (2017г.) [перемонтаж Ash61]
Language : Russian
Service kind : Complete Main
Default : Yes
Forced : No
Audio #2
ID : 3
Format : AC-3
Format/Info : Audio Coding 3
Commercial name : Dolby Digital
Codec ID : A_AC3
Duration : 1 h 35 min
Bit rate mode : Constant
Bit rate : 640 kb/s
Channel(s) : 6 channels
Channel layout : L R C LFE Ls Rs
Sampling rate : 48.0 kHz
Frame rate : 31.250 FPS (1536 SPF)
Compression mode : Lossy
Stream size : 437 MiB (4%)
Title : Original (BD 3D)
Language : English
Service kind : Complete Main
Default : No
Forced : No
Text #1
ID : 4
Format : UTF-8
Codec ID : S_TEXT/UTF8
Codec ID/Info : UTF-8 Plain Text
Title : Форсированные
Language : Russian
Default : Yes
Forced : No
Text #2
ID : 5
Format : UTF-8
Codec ID : S_TEXT/UTF8
Codec ID/Info : UTF-8 Plain Text
Title : Full
Language : English
Default : No
Forced : No
Text #3
ID : 6
Format : UTF-8
Codec ID : S_TEXT/UTF8
Codec ID/Info : UTF-8 Plain Text
Title : SDH (BD 3D)
Language : English
Default : No
Forced : No
Menu
00:00:00.000 : :1
00:07:50.470 : :2
00:13:44.115 : :3
00:20:36.235 : :4
00:26:39.181 : :5
00:34:31.278 : :6
00:44:34.839 : :7
00:52:32.983 : :8
01:01:37.527 : :9
01:09:51.354 : :10
01:16:21.452 : :11
01:28:12.954 : :12

Для оценки 3Д - Анимированные скрины























Display posts:    

Current time is: 11-May 21:48

All times are UTC ± 0


You cannot post new topics in this forum
You cannot reply to topics in this forum
You cannot edit your posts in this forum
You cannot delete your posts in this forum
You cannot vote in polls in this forum
You cannot attach files in this forum
You cannot download files in this forum

!ATTENTION!
The site does not give electronic versions of products, and is engaged only in a collecting and cataloguing of the references sent and published at a forum by our readers. If you are the legal owner of any submitted material and do not wish that the reference to it was in our catalogue, contact us and we shall immediately remove her. Files for an exchange on tracker are given by users of a site, and the administration does not bear the responsibility for their maintenance. The request to not fill in the files protected by copyrights, and also files of the illegal maintenance!