Ивановский Торрент трекер
Яндекс.Погода
 

[Quote]
HUNTER

Просто представь, что мы знаем- Год выпуска: 2020
Производство: Среда
Жанр: драма
Продолжительность: 4 x ~ 00:46:00
Субтитры: русские-Режиссёр: Роман Волобуев
В ролях: Евгений Стычкин, Анфиса Черных, Рина Гришина, Катя Федина, Екатерина Вилкова, Юлия Снигирь, Максим Виторган, Артур Ваха, Денис Бургазлиев, Александр Голубков, Павел Попов, Наталия Истомина, Александр Пряников, Мария Лаврова, Мария Лобанова, Ольга Сутулова, Сергей Рудзевич, Дмитрий Ендальцев, Иван Ивашкин, Илья Бледный, Сергей Галахов, Юрий Сапрыкин, Таисия Горюшева, Артём Барышников-Описание: Амбициозные создательницы телеграм-канала «ППЧМЗ» стремительно набирают сотни тысяч подписчиков. Для них это только начало: девушки полны идей и не собираются останавливаться. Правда, на пути к славе их поджидают скандальные разоблачения и просроченные кредиты. Помочь избавиться от финансовых проблем им предлагает крупный инвестор, чье единственное условие: принять в команду известного в прошлом журналиста старой формации — «совесть эпохи 2010-х» — Евгения Малышева. Теперь принимать решения и бороться за новых подписчиков им придётся вместе.- -Предыдущие и альтернативные раздачи-Доп. информация: Источник КиноПоиск HD (присутствует логотип видеосервиса). Контент скачан и выложен без изменений и без потери качества.
Реклама: Отсутствует-[box=#000000,#ff9999]Присутствует ненормативная лексика 18+[/box]-Качество: WEBRip 2160p
Формат: MKV
Видео кодек: H.265
Аудио кодек: E-AC3
Видео: HEVC, 3840х1608 (2.40:1), 25 fps, ~ 11.6 Mbps, 0.075 bit/pixel
Аудио 1: E-AC3, 48 kHz, 6 ch, 320 Kbps (С цензурой)
Аудио 2: E-AC3, 48 kHz, 6 ch, 320 Kbps (Без цензуры 18+)
Формат субтитров: softsub (SRT)-

Список серий

1 серия — Мертвец
2 серия — Месть — это окей
3 серия — Арт-проект
4 серия — Блок на негатив

MediaInfo

Код:General
Unique ID : 302754047992022714737743167886582516452 (0xE3C44F05BBA616674A9EE719C75E8AE4)
Complete name : Просто представь, что мы знаем (2020) - 1 Сезон - WEB-DL 2160p/Просто представь, что мы знаем (2020) - S1E1 - WEB-DL 2160p.mkv
Format : Matroska
Format version : Version 4
File size : 3.92 GiB
Duration : 46 min 2 s
Overall bit rate : 12.2 Mb/s
Encoded date : UTC 2021-01-03 18:02:43
Writing application : mkvmerge v51.0.0 ('I Wish') 64-bit
Writing library : libebml v1.4.0 + libmatroska v1.6.2
Video
ID : 1
Format : HEVC
Format/Info : High Efficiency Video Coding
Format profile : [email protected]@Main
Codec ID : V_MPEGH/ISO/HEVC
Duration : 46 min 2 s
Bit rate : 11.6 Mb/s
Width : 3 840 pixels
Height : 1 608 pixels
Display aspect ratio : 2.40:1
Original display aspect ratio : 2.40:1
Frame rate mode : Constant
Frame rate : 25.000 FPS
Color space : YUV
Chroma subsampling : 4:2:0
Bit depth : 8 bits
Bits/(Pixel*Frame) : 0.075
Stream size : 3.72 GiB (95%)
Writing library : x265 3.1+5-9c5c9cef2a86:[Linux][GCC 6.3.0][64 bit] 8bit+10bit+12bit
Encoding settings : cpuid=1111039 / frame-threads=5 / wpp / no-pmode / no-pme / no-psnr / no-ssim / log-level=2 / input-csp=1 / input-res=3840x1608 / interlace=0 / total-frames=0 / level-idc=0 / high-tier=1 / uhd-bd=0 / ref=4 / no-allow-non-conformance / no-repeat-headers / annexb / no-aud / no-hrd / info / hash=0 / no-temporal-layers / no-open-gop / min-keyint=100 / keyint=100 / gop-lookahead=0 / bframes=4 / b-adapt=2 / b-pyramid / bframe-bias=0 / rc-lookahead=25 / lookahead-slices=4 / scenecut=0 / radl=0 / no-splice / no-intra-refresh / ctu=64 / min-cu-size=8 / rect / no-amp / max-tu-size=32 / tu-inter-depth=1 / tu-intra-depth=1 / limit-tu=0 / rdoq-level=2 / dynamic-rd=0.00 / no-ssim-rd / signhide / no-tskip / nr-intra=0 / nr-inter=0 / no-constrained-intra / strong-intra-smoothing / max-merge=3 / limit-refs=3 / limit-modes / me=3 / subme=3 / merange=57 / temporal-mvp / weightp / no-weightb / no-analyze-src-pics / deblock=0:0 / sao / no-sao-non-deblock / rd=4 / no-early-skip / rskip / no-fast-intra / no-tskip-fast / no-cu-lossless / no-b-intra / no-splitrd-skip / rdpenalty=0 / psy-rd=2.00 / psy-rdoq=1.00 / no-rd-refine / no-lossless / cbqpoffs=0 / crqpoffs=0 / rc=abr / bitrate=11600 / qcomp=0.60 / qpstep=4 / stats-write=0 / stats-read=2 / cplxblur=20.0 / qblur=0.5 / vbv-maxrate=17400 / vbv-bufsize=23200 / vbv-init=0.9 / ipratio=1.40 / pbratio=1.30 / aq-mode=2 / aq-strength=1.00 / cutree / zone-count=0 / no-strict-cbr / qg-size=32 / no-rc-grain / qpmax=69 / qpmin=0 / no-const-vbv / sar=1 / overscan=0 / videoformat=5 / range=0 / colorprim=2 / transfer=2 / colormatrix=2 / chromaloc=0 / display-window=0cll=0,0 / min-luma=0 / max-luma=255 / log2-max-poc-lsb=8 / vui-timing-info / vui-hrd-info / slices=1 / no-opt-qp-pps / no-opt-ref-list-length-pps / no-multi-pass-opt-rps / scenecut-bias=0.05 / no-opt-cu-delta-qp / no-aq-motion / no-hdr / no-hdr-opt / no-dhdr10-opt / no-idr-recovery-sei / analysis-reuse-level=5 / scale-factor=0 / refine-intra=0 / refine-inter=0 / refine-mv=0 / refine-ctu-distortion=0 / no-limit-sao / ctu-info=0 / no-lowpass-dct / refine-analysis-type=0 / copy-pic=1 / max-ausize-factor=1.0 / no-dynamic-refine / no-single-sei / no-hevc-aq / no-svt / no-field / qp-adaptation-range=1.00
Default : Yes
Forced : No
Color range : Limited
Audio #1
ID : 2
Format : E-AC-3
Format/Info : Enhanced AC-3
Commercial name : Dolby Digital Plus
Codec ID : A_EAC3
Duration : 46 min 2 s
Bit rate mode : Constant
Bit rate : 320 kb/s
Channel(s) : 6 channels
Channel layout : L R C LFE Ls Rs
Sampling rate : 48.0 kHz
Frame rate : 31.250 FPS (1536 SPF)
Compression mode : Lossy
Stream size : 105 MiB (3%)
Title : Русский 5.1
Language : Russian
Service kind : Complete Main
Default : Yes
Forced : No
Audio #2
ID : 3
Format : E-AC-3
Format/Info : Enhanced AC-3
Commercial name : Dolby Digital Plus
Codec ID : A_EAC3
Duration : 46 min 2 s
Bit rate mode : Constant
Bit rate : 320 kb/s
Channel(s) : 6 channels
Channel layout : L R C LFE Ls Rs
Sampling rate : 48.0 kHz
Frame rate : 31.250 FPS (1536 SPF)
Compression mode : Lossy
Stream size : 105 MiB (3%)
Title : Русский 5.1 (18+)
Language : Russian
Service kind : Complete Main
Default : No
Forced : No
Text
ID : 4
Format : UTF-8
Codec ID : S_TEXT/UTF8
Codec ID/Info : UTF-8 Plain Text
Duration : 42 min 8 s
Bit rate : 145 b/s
Count of elements : 721
Stream size : 44.9 KiB (0%)
Language : Russian
Default : No
Forced : No

Скриншоты



Display posts:    

Current time is: 21-Jan 20:55

All times are UTC ± 0


You cannot post new topics in this forum
You cannot reply to topics in this forum
You cannot edit your posts in this forum
You cannot delete your posts in this forum
You cannot vote in polls in this forum
You cannot attach files in this forum
You cannot download files in this forum

!ATTENTION!
The site does not give electronic versions of products, and is engaged only in a collecting and cataloguing of the references sent and published at a forum by our readers. If you are the legal owner of any submitted material and do not wish that the reference to it was in our catalogue, contact us and we shall immediately remove her. Files for an exchange on tracker are given by users of a site, and the administration does not bear the responsibility for their maintenance. The request to not fill in the files protected by copyrights, and also files of the illegal maintenance!