Ивановский Торрент трекер
Яндекс.Погода
 

[Quote]
HUNTER

Призраки усадьбы Блай / The Haunting of Bly Manor- Год выпуска: 2020
Страна: США
Жанр: ужасы, триллер, драма, детектив
Продолжительность: 00:54:10-Перевод: Профессиональный (дублированный) SDI Media-Режиссёр: Майк Флэнеган, Киран Фой-В ролях: Тахира Шариф, Бен Эйнсуорт, Александра Эссоу, Амелия Ив, Каликс Фрайзер, Оливер Джексон-Коэн, Мартин МакКриди, Роз Мюррэй, Виктория Педретти, Джим Пиддок-Описание: Состоятельный лондонский лорд становится опекуном малолетних племянников Майлса и Флоры. Он поселяет их в своей загородной усадьбе и нанимает для них молодую гувернантку. Девушке рассказывают, что ранее в этом доме погибли бывшая гувернантка мисс Джессел и слуга Питер Квинт, и вскоре молодой няне начинает казаться, что в особняке обитают зловещие силы.- -Качество: WEB-DLRip
Формат: AVI
Видео: XviD, 704x352 (2,000), 24.000 кадров/сек, ~1600 Кбит/сек
Аудио 1: AC3, 48,0 kHz, 2 ch, 192 Кбит/сек [Rus]
Аудио 2: AC3, 48,0 kHz, 2 ch, 192 Кбит/сек [Eng]
Субтитры: Отсутствуют-Реклама:
[box]Отсутствует[/box]-За исходник спасибо [email protected]-Предыдущие и альтернативные раздачи-

MediaInfo

General
Complete name : Downloads\The.Haunting.of.Bly.Manor.S01.SDI Media\The.Haunting.of.Bly.Manor.S01E01.avi
Format : AVI
Format/Info : Audio Video Interleave
File size : 773 MiB
Duration : 54mn 10s
Overall bit rate : 1 995 Kbps
Writing application : VirtualDubMod 1.5.10.2 (build 2542/release)
Video #0
ID : 0
Format : MPEG-4 Visual
Format profile : Advanced [email protected]
Format settings, BVOP : 1
Format settings, QPel : No
Format settings, GMC : No warppoints
Format settings, Matrix : Default (H.263)
Codec ID : XVID
Codec ID/Hint : XviD
Duration : 54mn 10s
Bit rate : 1 597 Kbps
Width : 704 pixels
Height : 352 pixels
Display aspect ratio : 2.000
Frame rate : 24.000 fps
Color space : YUV
Chroma subsampling : 4:2:0
Bit depth : 8 bits
Scan type : Progressive
Compression mode : Lossy
Bits/(Pixel*Frame) : 0.269
Stream size : 619 MiB (80%)
Writing library : XviD 69
Audio #1
ID : 1
Format : AC-3
Format/Info : Audio Coding 3
Mode extension : CM (complete main)
Format settings, Endianness : Big
Codec ID : 2000
Duration : 54mn 10s
Bit rate mode : Constant
Bit rate : 192 Kbps
Channel(s) : 2 channels
Channel positions : Front: L R
Sampling rate : 48.0 KHz
Bit depth : 16 bits
Compression mode : Lossy
Stream size : 74.4 MiB (10%)
Alignment : Split accross interleaves
Interleave, duration : 42 ms (1.00 video frame)
Interleave, preload duration : 500 ms
Audio #2
ID : 2
Format : AC-3
Format/Info : Audio Coding 3
Mode extension : CM (complete main)
Format settings, Endianness : Big
Codec ID : 2000
Duration : 54mn 10s
Bit rate mode : Constant
Bit rate : 192 Kbps
Channel(s) : 2 channels
Channel positions : Front: L R
Sampling rate : 48.0 KHz
Bit depth : 16 bits
Compression mode : Lossy
Stream size : 74.4 MiB (10%)
Alignment : Split accross interleaves
Interleave, duration : 42 ms (1.00 video frame)
Interleave, preload duration : 500 ms

Скриншоты



Display posts:    

Current time is: 24-Nov 23:38

All times are UTC ± 0


You cannot post new topics in this forum
You cannot reply to topics in this forum
You cannot edit your posts in this forum
You cannot delete your posts in this forum
You cannot vote in polls in this forum
You cannot attach files in this forum
You cannot download files in this forum

!ATTENTION!
The site does not give electronic versions of products, and is engaged only in a collecting and cataloguing of the references sent and published at a forum by our readers. If you are the legal owner of any submitted material and do not wish that the reference to it was in our catalogue, contact us and we shall immediately remove her. Files for an exchange on tracker are given by users of a site, and the administration does not bear the responsibility for their maintenance. The request to not fill in the files protected by copyrights, and also files of the illegal maintenance!