Ивановский Торрент трекер
Яндекс.Погода
 

[Quote]
HUNTER

$irena (Амазонка) - Осколки реальности (Promo-CD)
Жанр: pop
Носитель: CDR
Страна-производитель диска (релиза): Россия
Год издания: 2001
Аудиокодек: FLAC (*.flac)
Тип рипа: image+.cue
Источник: собственный рип
Наличие сканов в содержимом раздачи: да
Треклист:
1 Intro
2 Реалистка
3 Кобель
4 Насильник
5 Альфонс
6 Враньё
7 А мне наплевать
8 Потрясная
9 Хочу тебя
10 Абортарий
11 Рядом с тобой
12 Бесполезно всё
13 P.S.
Bonus (video) - клип "Альфонс"
*треки 5 и 9 были изданы на альбоме 1996 года
Амазонка - Опять одна

Лог создания рипа

Exact Audio Copy V1.0 beta 1 from 15. November 2010
Отчёт EAC об извлечении, выполненном 1. февраля 2013, 18:06
$irena (Амазонка) / Осколки реальности
Дисковод: ASUS DRW-24B1LT Adapter: 1 ID: 0
Режим чтения : Достоверность
Использование точного потока : Да
Отключение кэша аудио : Да
Использование указателей C2 : Нет
Коррекция смещения при чтении : 6
Способность читать области Lead-in и Lead-out : Нет
Заполнение пропущенных сэмплов тишиной : Да
Удаление блоков с тишиной в начале и конце : Нет
При вычислениях CRC использовались нулевые сэмплы : Да
Интерфейс : Встроенный Win32-интерфейс для Win NT/2000
Выходной формат : Внутренние WAV-операции
Формат сэмплов : 44.100 Гц; 16 бит; стерео
TOC извлечённого CD
Трек | Старт | Длительность | Начальный сектор | Конечный сектор
---------------------------------------------------------------------
1 | 0:00.00 | 3:23.55 | 0 | 15279
2 | 3:23.55 | 0:35.74 | 15280 | 17978
3 | 3:59.54 | 2:47.13 | 17979 | 30516
4 | 6:46.67 | 3:44.18 | 30517 | 47334
5 | 10:31.10 | 3:19.00 | 47335 | 62259
6 | 13:50.10 | 3:58.05 | 62260 | 80114
7 | 17:48.15 | 3:17.15 | 80115 | 94904
8 | 21:05.30 | 3:27.65 | 94905 | 110494
9 | 24:33.20 | 3:55.09 | 110495 | 128128
10 | 28:28.29 | 3:56.36 | 128129 | 145864
11 | 32:24.65 | 3:28.65 | 145865 | 161529
12 | 35:53.55 | 4:15.03 | 161530 | 180657
13 | 40:08.58 | 3:35.45 | 180658 | 196827
14 | 43:44.28 | 1:05.06 | 196828 | 201708
Характеристики диапазона извлечения и сообщения об ошибках
Выбранный диапазон
Имя файла T:\LossLess\$irena (Амазонка) - Осколки реальности (2001)\$irena (Амазонка) - Осколки реальности.wav
Пиковый уровень 100.0 %
0.1 X
Качество диапазона 100.0 %
CRC теста BA80CD3E
CRC копии BA80CD3E
Копирование... OK
Ошибок не произошло
Конец отчёта
==== 2BF03CC0BE1A9D551F01E7D16841607DDAB8A2214EDD0B11BA8BEBFBCDED8E66 ====

Содержание индексной карты (.CUE)

REM GENRE Pop
REM DATE 2001
REM DISCID 9F0A810E
REM COMMENT "ExactAudioCopy v1.0b1"
PERFORMER "$irena (Амазонка)"
TITLE "Осколки реальности"
FILE "$irena (Амазонка) - Осколки реальности.flac" WAVE
TRACK 01 AUDIO
TITLE "Intro"
PERFORMER "$irena (Амазонка)"
INDEX 01 00:00:00
TRACK 02 AUDIO
TITLE "Реалистка"
PERFORMER "$irena (Амазонка)"
INDEX 00 00:34:00
INDEX 01 00:35:74
TRACK 03 AUDIO
TITLE "Кобель"
PERFORMER "$irena (Амазонка)"
INDEX 00 03:21:13
INDEX 01 03:23:12
TRACK 04 AUDIO
TITLE "Насильник"
PERFORMER "$irena (Амазонка)"
INDEX 00 07:05:31
INDEX 01 07:07:30
TRACK 05 AUDIO
TITLE "Альфонс"
PERFORMER "$irena (Амазонка)"
INDEX 00 10:24:31
INDEX 01 10:26:30
TRACK 06 AUDIO
TITLE "Враньё"
PERFORMER "$irena (Амазонка)"
INDEX 00 14:22:36
INDEX 01 14:24:35
TRACK 07 AUDIO
TITLE "А мне наплевать"
PERFORMER "$irena (Амазонка)"
INDEX 00 17:39:51
INDEX 01 17:41:50
TRACK 08 AUDIO
TITLE "Потрясная"
PERFORMER "$irena (Амазонка)"
INDEX 00 21:07:41
INDEX 01 21:09:40
TRACK 09 AUDIO
TITLE "Хочу тебя"
PERFORMER "$irena (Амазонка)"
INDEX 00 25:02:50
INDEX 01 25:04:49
TRACK 10 AUDIO
TITLE "Абортарий"
PERFORMER "$irena (Амазонка)"
INDEX 00 28:59:11
INDEX 01 29:01:10
TRACK 11 AUDIO
TITLE "Рядом с тобой"
PERFORMER "$irena (Амазонка)"
INDEX 00 32:28:01
INDEX 01 32:30:00
TRACK 12 AUDIO
TITLE "Бесполезно всё"
PERFORMER "$irena (Амазонка)"
INDEX 00 36:43:04
INDEX 01 36:45:03
TRACK 13 AUDIO
TITLE "P.S."
PERFORMER "$irena (Амазонка)"
INDEX 00 40:18:49
INDEX 01 40:20:48

Скриншот спектра частот

Об исполнителе (группе)

Алсу Булгарина, она же Амазонка, она же солистка проекта "Президент и Амазонка"

Об альбоме (сборнике)

промка, попытка ребрендинга и реанимации Амазонки


Display posts:    

Current time is: 14-May 07:17

All times are UTC ± 0


You cannot post new topics in this forum
You cannot reply to topics in this forum
You cannot edit your posts in this forum
You cannot delete your posts in this forum
You cannot vote in polls in this forum
You cannot attach files in this forum
You cannot download files in this forum

!ATTENTION!
The site does not give electronic versions of products, and is engaged only in a collecting and cataloguing of the references sent and published at a forum by our readers. If you are the legal owner of any submitted material and do not wish that the reference to it was in our catalogue, contact us and we shall immediately remove her. Files for an exchange on tracker are given by users of a site, and the administration does not bear the responsibility for their maintenance. The request to not fill in the files protected by copyrights, and also files of the illegal maintenance!