Ивановский Торрент трекер
Яндекс.Погода
 

[Quote]
HUNTER

Планета Монстров / War Planets: Shadow Raiders- Страна: Канада
Жанр: мультфильм, фантастика, боевик
Продолжительность серии: ~00:22:18
Год выпуска: 1998-1999
Перевод: Профессиональный (дублированный) СВ-Дубль
Русские субтитры: нет
Режиссёр: Джордж Самильски / George Samilski, Джеймс Тэйлор / James Taylor, Дуэйн Бивер / Dwayne Biver
Роли озвучивали: Пол Добсон / Paul Dobson, Марк Оливер / Mark Oliver, Энука Окума / Enuka Okum, Гари Чок / Gary Chok, Таша Симс / Tasha Sims, Донна Ямамото / Donna Yamamoto, Джим Бернс / Jim Burns, Мэтт Хилл / Matt Hill, Скотт МакНил / Scott Maknil, Теган Мосс / Tegan Moss
Роли дублировали: Сергей Чекан / Sergey Chekan, Жанна Никонова / Jeanne Nikonova, Андрей Бархударов / Andrey Barkhudarov, Дмитрий Матвеев / Dmitry Matveev, Татьяна Шагалова / Tatyana Shagalova
Описание: Планетa Мoнстрoв — миф, стрaшнaя скaзка для детей. Так считали до тех пор, пoкa злыe и кровожадные ракопaуки полнoстью не уничтожили планету Тек. Смертельная угроза нависла над миром. Опустошение и разрушения, истребление и гибель ждут Костяную, Ледяную, Огненную и Каменную планеты, если их народы не объединятся. Отважный рудокоп Грейвхарт берётся сплотить враждующих правителей, и если ему это удастся, то монстрам несдобровать.-Благодарности:
AORE - английские лицензионные ДВД
Странник 2.0 - раздача рипов и синхрон дорожек
TommyBrown - дополнительный синхрон и сборка ремуксов-Качество: DVDRemux
Формат: MKV
Видео: MPEG-2 Video | PAL | 4:3 | 720x576 | 25.000 fps | 4861 Kbps
Аудио: 48 kHz, AC3 Dolby Digital, 2/0 (L,R) ch, ~192 kbps | Профессиональный (дублированный) СВ-Дубль
Аудио 2: 48 kHz, AC3 Dolby Digital, 2/0 (L,R) ch, ~192 kbps | Оригинал, английский
Субтитры: отсутствуют

Список серий

01. Берегись монстров / Behold, the beast
02. На Каменной планете / On the rock
03. Рожденные в огне / Born in fire
04. Плохой до самых костей / Bad to the Bone
05. Волк в овчарне / Wolf in the fold
06. Война разумов / Mino war
07. Обвинение / J`accuse
08. Еще больше крови / Blood is thicker
09. Камни и руины / Rock and run
10. Вопреки всему / Against all odds
11. Отказ от лидерства / Uneasy hangs the head
12. Решающая битва (часть 1) / Ragnarok - part I
13. Решающая битва (часть 2) / Ragnarok - part II
14. Миры внутри миров / Worlds within worlds
15. Так приходит конец света / This is way the worlds end
16. Период приспособления / Period of adjustment
17. Блеск славы / A blaze of glory
18. Песчаная буря / Sandstorm
19. У девушек выходной / Girls night out
20. Мина замедленного действия / Timebomb
21. Пепел прошлого / Embers of the past
22. Разделены, но не сломаны / Divided we stand
23. Не надежная клетка / Nor iron bars a cage
24. Смерть короля / Death of the king
25. Долгая дорога домой / The long road home
26. Восхождение / Ascension

Подробные технические данные

General
Unique ID : 219029178581532338588741548236139859093 (0xA4C77C415ECA68BA39904DD523DF0C95)
Complete name : E:\Downloads\Планета Монстров\01. Берегись монстров.mkv
Format : Matroska
Format version : Version 4
File size : 839 MiB
Duration : 22 min 21 s
Overall bit rate mode : Variable
Overall bit rate : 5 249 kb/s
Encoded date : UTC 2021-01-30 23:42:45
Writing application : mkvmerge v52.0.0 ('Secret For The Mad') 64-bit
Writing library : libebml v1.4.1 + libmatroska v1.6.2
Video
ID : 1
Format : MPEG Video
Format version : Version 2
Format profile : [email protected]
Format settings : BVOP
Format settings, BVOP : Yes
Format settings, Matrix : Default
Format settings, GOP : M=3, N=13
Format settings, picture structure : Frame
Codec ID : V_MPEG2
Codec ID/Info : MPEG 1 or 2 Video
Duration : 22 min 21 s
Bit rate mode : Variable
Bit rate : 4 861 kb/s
Maximum bit rate : 8 500 kb/s
Width : 720 pixels
Height : 576 pixels
Display aspect ratio : 4:3
Frame rate mode : Constant
Frame rate : 25.000 FPS
Standard : PAL
Color space : YUV
Chroma subsampling : 4:2:0
Bit depth : 8 bits
Scan type : Interlaced
Scan order : Top Field First
Compression mode : Lossy
Bits/(Pixel*Frame) : 0.469
Time code of first frame : 00:59:58:00
Time code source : Group of pictures header
GOP, Open/Closed : Open
Stream size : 777 MiB (93%)
Default : Yes
Forced : No
Color primaries : BT.601 PAL
Transfer characteristics : BT.470 System B/G
Matrix coefficients : BT.470 System B/G
Audio #1
ID : 2
Format : AC-3
Format/Info : Audio Coding 3
Commercial name : Dolby Digital
Codec ID : A_AC3
Duration : 22 min 19 s
Bit rate mode : Constant
Bit rate : 192 kb/s
Channel(s) : 2 channels
Channel layout : L R
Sampling rate : 48.0 kHz
Frame rate : 31.250 FPS (1536 SPF)
Compression mode : Lossy
Delay relative to video : 27 ms
Stream size : 30.7 MiB (4%)
Title : DUB
Language : Russian
Service kind : Complete Main
Default : Yes
Forced : No
Audio #2
ID : 3
Format : AC-3
Format/Info : Audio Coding 3
Commercial name : Dolby Digital
Codec ID : A_AC3
Duration : 22 min 20 s
Bit rate mode : Constant
Bit rate : 192 kb/s
Channel(s) : 2 channels
Channel layout : L R
Sampling rate : 48.0 kHz
Frame rate : 31.250 FPS (1536 SPF)
Compression mode : Lossy
Stream size : 30.7 MiB (4%)
Language : English
Service kind : Complete Main
Default : No
Forced : No

Скриншоты

Предыдущие и альтернативные раздачи


Display posts:    

Current time is: 12-Jun 22:42

All times are UTC ± 0


You cannot post new topics in this forum
You cannot reply to topics in this forum
You cannot edit your posts in this forum
You cannot delete your posts in this forum
You cannot vote in polls in this forum
You cannot attach files in this forum
You cannot download files in this forum

!ATTENTION!
The site does not give electronic versions of products, and is engaged only in a collecting and cataloguing of the references sent and published at a forum by our readers. If you are the legal owner of any submitted material and do not wish that the reference to it was in our catalogue, contact us and we shall immediately remove her. Files for an exchange on tracker are given by users of a site, and the administration does not bear the responsibility for their maintenance. The request to not fill in the files protected by copyrights, and also files of the illegal maintenance!