Мэр Кингстауна / Mayor of Kingstown / Сезон: 1 / Серии: 1-10 из 10 (Гай Ферленд, Бен Ричардсон, Тейлор Шеридан) [2021, Канада, США, Триллер, драма, криминал, WEB-DLRip] MVO (HDRezka Studio) + Original :: Российский Торрент трекер
Российский Торрент трекер
Яндекс.Погода
 

[Quote]
HUNTER

Мэр Кингстауна / Mayor of Kingstown- Год выпуска: 2021
Страна: Канада, США
Жанр: Триллер, драма, криминал
Продолжительность: 01:00:00-Перевод: Профессиональный (многоголосый закадровый) -
[box]HDRezka Studio[/box]
18+ Uncensored-Режиссёр: Гай Ферленд, Бен Ричардсон, Тейлор Шеридан-В ролях: Джереми Реннер, Дайэнн Уист, Кайл Чандлер, Эйден Гиллен, Дерек Уэбстер, Хью Диллон, Тейлор Хэндли, Тоби Бамтефа, Хамиш Аллан-Хэдли, Хью Диллон-Описание: Провинциальный Кингстаун находится в полном упадке, единственная приносящая доход отрасль — тюремный бизнес. Городком неофициально управляет семья Макласки, которая контролирует и заключенных, и полицию, и местную власть.-Сэмпл / IMDb / КиноПоиск-Все раздачи сериала-Качество: WEB-DLRip
Формат: AVI
Видео: XviD, 704x352 (2.000), 24.000 FPS, 1599 Kbps, 0.269 bit/pixel
Аудио 1: AC3, 48.0 KHz, 2 ch, 192 kbps | HDRezka Studio
Аудио 2: AC3, 48.0 KHz, 2 ch, 192 kbps | Original|
Субтитры: Pусские (Forced)
Реклама:
[box]Отсутствует[/box]

Релиз

исх. WEB-DL (720p) kinozal
За дорожку без рекламы спасибо leon899xxx
Рип: Сибиряк777

MediaInfo

General
Complete name : Downloads\Mayor.of.Kingstown.S01.WEB-DLRip.HDRezka Studio\Mayor.of.Kingstown.S01.E01.WEB-DLRip.Rus.Eng.Сибиряк.avi
Format : AVI
Format/Info : Audio Video Interleave
File size : 941 MiB
Duration : 1 h 6 min
Overall bit rate : 1 994 kb/s
Writing application : VirtualDubMod 1.5.10.2 (build 2540/release)
Video #0
ID : 0
Format : MPEG-4 Visual
Format profile : Advanced [email protected]
Format settings : BVOP1
Format settings, BVOP : 1
Format settings, QPel : No
Format settings, GMC : No warppoints
Format settings, Matrix : Default (H.263)
Codec ID : XVID
Codec ID/Hint : XviD
Duration : 1 h 6 min
Bit rate : 1 599 kb/s
Width : 704 pixels
Height : 352 pixels
Display aspect ratio : 2.000
Frame rate : 24.000 FPS
Color space : YUV
Chroma subsampling : 4:2:0
Bit depth : 8 bits
Scan type : Progressive
Compression mode : Lossy
Bits/(Pixel*Frame) : 0.269
Stream size : 755 MiB (80%)
Writing library : XviD 69
Audio #1
ID : 1
Format : AC-3
Format/Info : Audio Coding 3
Codec ID : 2000
Duration : 1 h 4 min
Bit rate mode : Constant
Bit rate : 192 kb/s
Channel(s) : 2 channels
Channel positions : Front: L R
Sampling rate : 48.0 kHz
Frame rate : 31.250 FPS (1536 SPF)
Bit depth : 16 bits
Compression mode : Lossy
Stream size : 89.1 MiB (9%)
Alignment : Split accross interleaves
Interleave, duration : 42 ms (1.02 video frame)
Interleave, preload duration : 500 ms
Service kind : Complete Main
Audio #2
ID : 2
Format : AC-3
Format/Info : Audio Coding 3
Codec ID : 2000
Duration : 1 h 6 min
Bit rate mode : Constant
Bit rate : 192 kb/s
Channel(s) : 2 channels
Channel positions : Front: L R
Sampling rate : 48.0 kHz
Frame rate : 31.250 FPS (1536 SPF)
Bit depth : 16 bits
Compression mode : Lossy
Stream size : 90.6 MiB (10%)
Alignment : Split accross interleaves
Interleave, duration : 42 ms (1.00 video frame)
Interleave, preload duration : 500 ms
Service kind : Complete Main

Скриншоты

Внимание! Раздача ведётся путём добавления новых серий:

(1) остановить скачивание,
(2) удалить старый торрент у себя из клиента (старые серии удалять не надо),
(3) скачать новый торрент и запустить его у себя в клиенте вместо старого, при этом указать клиенту путь в старую папку куда и должно происходить скачивание новых серий.
Ваш клиент при этом должен произвести хеширование (проверку) старой папки (если не производит сам - помогите ему сделать это), и будет докачивать только те серии которых у вас ещё нет. Старые серии при этом не удаляются, а продолжают раздаваться!
Eсли вы уже удалили старые серии, то предотвратить повторную закачку старых серий можно, отжав галочку в соответсвующих местах при запуске нового торрента. По возможности, желательно не удалять старые серии как можно дольше чтобы релизёр не столько продолжал раздавать старые серии, а смог сконцентрироваться на новых
.


Display posts:    

Current time is: 21-Jan 05:19

All times are UTC ± 0


You cannot post new topics in this forum
You cannot reply to topics in this forum
You cannot edit your posts in this forum
You cannot delete your posts in this forum
You cannot vote in polls in this forum
You cannot attach files in this forum
You cannot download files in this forum

!ATTENTION!
The site does not give electronic versions of products, and is engaged only in a collecting and cataloguing of the references sent and published at a forum by our readers. If you are the legal owner of any submitted material and do not wish that the reference to it was in our catalogue, contact us and we shall immediately remove her. Files for an exchange on tracker are given by users of a site, and the administration does not bear the responsibility for their maintenance. The request to not fill in the files protected by copyrights, and also files of the illegal maintenance!