Ивановский Торрент трекер
Яндекс.Погода
 

[Quote]
HUNTER

Любовь, смерть и роботы / Love, Death & Robots
--Страна: США
Студия: Netflix, Blur Studio
Жанр: мультфильм, ужасы, фантастика, фэнтези, комедия, боевик, криминал
Год выпуска: 2019
Продолжительность: 11~17 мин--Перевод: Профессиональный (дублированный) BTI Studios & Пифагор
Субтитры: русские, английские SDH
Оригинальная аудиодорожка: английский--Режиссер: Тим Миллер / Tim Miller
Роли озвучивали: Антонио Альварес, Стефан Капичич, Хейли МакЛафлин, Хелен Сэдлер, Илэйн Тан, Алексия Докс, Мэри Элизабет Уинстэд, Тофер Грэйс, Гэри Коул, Самира Уайли--Описание: Короткометражные фильмы на фантастические темы.--imdb | kinopoisk | Сэмпл | Предыдущие и альтернативные раздачи--Тип релиза: WEB-DL 1080p [Love, Death & Robots S01 1080p WEB-DL DD+5.1 HDR HEVC-HDCTV]
Контейнер: MKV
Видео: MPEG-H HEVC Video / ~4287 kbps / 1920x1080 / 24 fps / 16:9 / Main 10 @ Level 5.1 @ High / 4:2:0 / 10 bits / 4000nits / HDR10 / BT.2020
Аудио 1: Russian E-AC3 / 5.1 / 48 kHz / 640 kbps |Dub, SDI Media|
Аудио 2: English E-AC3+Atmos / 5.1 / 48 kHz / 768 kbps |original|
Формат субтитров: softsub [SRT]

MediaInfo

Код:
Общее
Уникальный идентификатор : 21859005323266559005957556082997025344 (0x1071E42B9FEB8666D54BD8F5C9E15A40)
Полное имя : G:\HD\Любовь, смерть и роботы.2019.WEB-DL.1080p.HDR\Любовь, смерть и роботы.S01E01.2019.WEB-DL.1080p.HDR.mkv
Формат : Matroska
Версия формата : Version 4
Размер файла : 464 Мбайт
Продолжительность : 11 м. 48 с.
Общий поток : 5 493 Кбит/сек
Дата кодирования : UTC 2021-03-07 23:37:19
Программа кодирования : mkvmerge v55.0.0 ('Waiting For Space') 64-bit
Библиотека кодирования : libebml v1.4.2 + libmatroska v1.6.4
Attachments : poster.jpg
Видео
Идентификатор : 1
Формат : HEVC
Формат/Информация : High Efficiency Video Coding
Профиль формата : Main [email protected]@Main
HDR format : SMPTE ST 2086, HDR10 compatible
Идентификатор кодека : V_MPEGH/ISO/HEVC
Продолжительность : 11 м. 15 с.
Битрейт : 4 287 Кбит/сек
Ширина : 1 920 пикселей
Высота : 1 080 пикселей
Соотношение сторон : 16:9
Режим частоты кадров : Постоянный
Частота кадров : 24,000 кадра/сек
Цветовое пространство : YUV
Субдискретизация насыщенности : 4:2:0 (Type 2)
Битовая глубина : 10 бит
Бит/(Пиксели*Кадры) : 0.086
Размер потока : 345 Мбайт (74%)
Default : Да
Forced : Нет
Цветовой диапазон : Limited
Основные цвета : BT.2020
Характеристики трансфера : PQ
Коэффициенты матрицы : BT.2020 non-constant
Mastering display color primaries : Display P3
Mastering display luminance : min: 0.0050 cd/m2, max: 4000 cd/m2
Maximum Content Light Level : 1474 cd/m2
Maximum Frame-Average Light Level : 91 cd/m2
Аудио #1
Идентификатор : 2
Формат : E-AC-3
Формат/Информация : Enhanced AC-3
Коммерческое название : Dolby Digital Plus
Идентификатор кодека : A_EAC3
Продолжительность : 11 м. 48 с.
Вид битрейта : Постоянный
Битрейт : 640 Кбит/сек
Каналы : 6 каналов
Channel layout : L R C LFE Ls Rs
Частота : 48,0 КГц
Частота кадров : 31,250 кадров/сек (1536 SPF)
Метод сжатия : С потерями
Размер потока : 54,1 Мбайт (12%)
Заголовок : Dub, BTI Studios & Пифагор
Язык : Russian
Service kind : Complete Main
Default : Да
Forced : Нет
Аудио #2
Идентификатор : 3
Формат : E-AC-3 JOC
Формат/Информация : Enhanced AC-3 with Joint Object Coding
Коммерческое название : Dolby Digital Plus with Dolby Atmos
Идентификатор кодека : A_EAC3
Продолжительность : 11 м. 48 с.
Вид битрейта : Постоянный
Битрейт : 768 Кбит/сек
Каналы : 6 каналов
Channel layout : L R C LFE Ls Rs
Частота : 48,0 КГц
Частота кадров : 31,250 кадров/сек (1536 SPF)
Метод сжатия : С потерями
Размер потока : 64,9 Мбайт (14%)
Язык : English
Service kind : Complete Main
Default : Нет
Forced : Нет
Complexity index : 16
Number of dynamic objects : 15
Bed channel count : 1 канал
Bed channel configuration : LFE
Текст #1
Идентификатор : 4
Формат : UTF-8
Идентификатор кодека : S_TEXT/UTF8
Идентификатор кодека/Информация : UTF-8 Plain Text
Продолжительность : 10 м. 56 с.
Битрейт : 145 бит/сек
Count of elements : 178
Размер потока : 11,7 Кбайт (0%)
Язык : Russian
Default : Нет
Forced : Нет
Текст #2
Идентификатор : 5
Формат : UTF-8
Идентификатор кодека : S_TEXT/UTF8
Идентификатор кодека/Информация : UTF-8 Plain Text
Продолжительность : 9 м. 38 с.
Битрейт : 110 бит/сек
Count of elements : 188
Размер потока : 7,77 Кбайт (0%)
Заголовок : SDH
Язык : English
Default : Нет
Forced : Нет

Скриншоты


Список серий

01. Три робота / Three Robots
02. За разломом Орла / Beyond the Aquila Rift
03. Ледниковый период / Ice Age
04. Преимущество Сонни / Sonnie's Edge
05. Когда йогурт захватил мир / When The Yogurt Took Over
06. Тайная война / Secret War
07. Глотатель душ / Sucker of Souls
08. Свидетель / The Witness
09. Костюмы / Suits
10. Доброй охоты / Good Hunting
11. Свалка / The Dump
12. Оборотни / Shape-Shifters
13. Рыбная ночь / Fish Night
14. Рука помощи / Helping Hand
15. Исторические альтернативы / Alternate Histories
16. Счастливая тринашка / Lucky 13
17. Слепое пятно / Blindspot
18. Зима Блю / Zima Blue


Display posts:    

Current time is: 14-May 07:18

All times are UTC ± 0


You cannot post new topics in this forum
You cannot reply to topics in this forum
You cannot edit your posts in this forum
You cannot delete your posts in this forum
You cannot vote in polls in this forum
You cannot attach files in this forum
You cannot download files in this forum

!ATTENTION!
The site does not give electronic versions of products, and is engaged only in a collecting and cataloguing of the references sent and published at a forum by our readers. If you are the legal owner of any submitted material and do not wish that the reference to it was in our catalogue, contact us and we shall immediately remove her. Files for an exchange on tracker are given by users of a site, and the administration does not bear the responsibility for their maintenance. The request to not fill in the files protected by copyrights, and also files of the illegal maintenance!