Ивановский Торрент трекер
Яндекс.Погода
 

[Quote]
HUNTER

[box]7 дней на раздаче![/box]Лунтик
Год выпуска: 2020
Страна: Россия
Жанр: мультсериал
Продолжительность: 22 х 00:05:30
Перевод: не требуется
субтитры: отсутствуют-Режиссёр: Дарина Шмидт, Екатерина Салабай, Екатерина Шрага
Роли озвучивали: Михаил Черняк, Екатерина Гороховская, Елена Шульман, Наталья Данилова, Юлия Рудина, Елена Соловьева, Анатолий Петров, Олег Куликович, Константин Бронзит, Светлана Письмиченко-Описание: Приключениях Лунтика, удивительного пушистого существа, родившегося на Луне и свалившегося с нее на Землю. На Земле малыш повстречает новых друзей, от которых узнает много нового и интересного. Перед глазами телезрителей Лунтик будет открывать для себя мир, познакомится с такими важнейшими понятиями как дружба, счастье, верность, взаимопомощь. Вместе с земными друзьями этот обаятельный пришелец переживет много забавных и радостных моментов. Мультсериал адресован самым маленьким зрителям и создается при содействии педагогов по дошкольному образованию. Каждая серия представляет собой законченную поучительную историю. Вместе с главными героями мультфильма дети учатся различать добро и зло, познавать мир, взаимодействовать с окружающими.- релиз: -Качество: WEB-DL 1080p
Формат: MP4
Видео кодек: AVC
Аудио кодек: AAC
Видео: 1920x1080 , 25 fps, ~4734 kbps avg, 0.091 bit/pixel
Аудио: 48 kHz, AAC, 2ch, ~192 kbps avg

Список серий

9 сезон
01. Хотим быть рыбками
02. Говорящий лес
03. Младшенький
04. И красота, и польза
05. Супершнюк
06. Притягательный Лунтик
07. Сказочный злодей
08. Лесной патруль
09. Страшно добрая фея
10. Доктор Пупсень
11. Никаких проблем
12. Редкая драгоценность
13. Моментальная почта
14. Рукодельницы
15. Большая
16. Большой жук
17. Стихи к празднику
18. Новинки сезона
19. Экскурсия
20. Новый друг
21. В поисках имени
22. Требуются бабушка и дедушка
23. Выдуманная подружка
24. Дедушка Шнюк
25. Когда у Шнюка душа поет
26. Тыквенная история
27. Дотянуться до Луны

MediaInfo

Общее
Полное имя : D:\Лунтик.s09.2020.WEB-DL 1080p\01. Хотим быть рыбками.mp4
Формат : MPEG-4
Профиль формата : Base Media
Идентификатор кодека : isom (isom/iso2/avc1/mp41)
Размер файла : 194 Мбайт
Продолжительность : 5 м. 30 с.
Режим общего битрейта : Переменный
Общий поток : 4928 Кбит/сек
Видео
Идентификатор : 1
Формат : AVC
Формат/Информация : Advanced Video Codec
Профиль формата : [email protected]
Настройки формата : CABAC / 4 Ref Frames
Параметр CABAC формата : Да
Параметр RefFrames формата : 4 кадра
Идентификатор кодека : avc1
Идентификатор кодека/Информация : Advanced Video Coding
Продолжительность : 5 м. 30 с.
Битрейт : 4734 Кбит/сек
Номинальный битрейт : 6000 Кбит/сек
Ширина : 1920 пикселей
Высота : 1080 пикселей
Соотношение сторон : 16:9
Режим частоты кадров : Постоянный
Частота кадров : 25,000 кадров/сек
Цветовое пространство : YUV
Субдискретизация насыщенности : 4:2:0
Битовая глубина : 8 бит
Тип развёртки : Прогрессивная
Бит/(Пиксели*Кадры) : 0.091
Размер потока : 187 Мбайт (96%)
Библиотека кодирования : x264 core 157 r2969 d4099dd
Настройки программы : cabac=1 / ref=4 / deblock=1:0:0 / analyse=0x3:0x133 / me=umh / subme=10 / psy=1 / psy_rd=1.00:0.00 / mixed_ref=1 / me_range=24 / chroma_me=1 / trellis=2 / 8x8dct=1 / cqm=0 / deadzone=21,11 / fast_pskip=1 / chroma_qp_offset=-2 / threads=34 / lookahead_threads=5 / sliced_threads=0 / nr=0 / decimate=1 / interlaced=0 / bluray_compat=0 / constrained_intra=0 / bframes=8 / b_pyramid=2 / b_adapt=2 / b_bias=0 / direct=3 / weightb=1 / open_gop=0 / weightp=2 / keyint=100 / keyint_min=10 / scenecut=40 / intra_refresh=0 / rc_lookahead=60 / rc=2pass / mbtree=1 / bitrate=6000 / ratetol=1.0 / qcomp=0.60 / qpmin=0 / qpmax=69 / qpstep=4 / cplxblur=20.0 / qblur=0.5 / vbv_maxrate=6600 / vbv_bufsize=1100 / nal_hrd=none / filler=0 / ip_ratio=1.40 / aq=1:1.00
Аудио
Идентификатор : 2
Формат : AAC
Формат/Информация : Advanced Audio Codec
Профиль формата : LC
Идентификатор кодека : mp4a-40-2
Продолжительность : 5 м. 30 с.
Вид битрейта : Переменный
Битрейт : 192 Кбит/сек
Каналы : 2 канала
Расположение каналов : Front: L R
Частота : 48,0 КГц
Частота кадров : 46,875 кадров/сек (1024 SPF)
Метод сжатия : С потерями
Размер потока : 7,49 Мбайт (4%)
Default : Да
AlternateGroup/String : 1
[box]Ссылка на предыдущие и альтернативные раздачи[/box]


Display posts:    

Current time is: 27-Nov 19:22

All times are UTC ± 0


You cannot post new topics in this forum
You cannot reply to topics in this forum
You cannot edit your posts in this forum
You cannot delete your posts in this forum
You cannot vote in polls in this forum
You cannot attach files in this forum
You cannot download files in this forum

!ATTENTION!
The site does not give electronic versions of products, and is engaged only in a collecting and cataloguing of the references sent and published at a forum by our readers. If you are the legal owner of any submitted material and do not wish that the reference to it was in our catalogue, contact us and we shall immediately remove her. Files for an exchange on tracker are given by users of a site, and the administration does not bear the responsibility for their maintenance. The request to not fill in the files protected by copyrights, and also files of the illegal maintenance!