Ивановский Торрент трекер
Яндекс.Погода
 

[Quote]
HUNTER

Леди и бродяга / Сюзи и бродячая собака / Lady and the Tramp / Susi und Strolch
«The most delightful characters in a dog's age!»
Страна: США
Жанр: Мультфильм
Продолжительность: 01:16:23
Год выпуска: 1955
Перевод: Одноголосый закадровый неизвестный "немец"
Русские субтитры: нет
Режиссёр: Клайд Джероними, Уилфред Джексон / Clyde Geronimi, Wilfred Jackson
Роли озвучивали: Пегги Ли, Ларри Робертс, Билл Бауком, Верна Фелтон, Джордж
Гивот, Стэн Фреберг, Ли Миллар, Барбара Ладди, Билл Томпсон, Даль МакКеннон
Описание: Трогательная и захватывающая история сближения двух абсолютно разных собак —
породистой комнатной неженки и обычной дворняги. Изящная и пушистая как игрушка, коккер-
спаниельша Леди была любимицей хозяев, пока в их семье не появился младенец. Надетый
намордник стал последней каплей, подтолкнувшей обиженную героиню к бегству. Но на улице ее
поджидала целая куча опасностей, о существовании которых она даже не подозревала. И тогда на
помощь миниатюрной черноглазой красотке пришел пес Бродяга, благородство которого было не в
породе, а в душе.
Доп. информация: Дорожка с VO синхронизирована и наложена ale_x2008 при помощи Adobe Audition, Sony Vegas и VirtualDubMod.
За оцифрованную с VHS дорожку благодарим - alenavova

Релиз
Семпл: http://multi-up.com/1274630
Качество: BDRip
Формат: AVI
Видео: XviD build 65, 704x272 (2.59:1), 25 fps, 1899 kbps avg, 0.41 bit/pixel
Аудио: AC3 Dolby Digital, 48000Hz 2/0 (L,R) ch (mono), 192 kbps avg
Аудио 2: 48 kHz, AC3 Dolby Digital, 3/2 (L,C,R,l,r) + LFE ch, ~448 kbps avg|ENG|
Субтитры: отсутствуют

Подробные технические данные

Леди и бродяга (Lady and the Tramp) BDRip VO [by ale_x2008].avi
Format : AVI
Format/Info : Audio Video Interleave
File size : 1.36 GiB
Duration : 1 h 16 min
Overall bit rate : 2 553 kb/s
Movie name : Леди и бродяга (Lady and the Tramp) BDRip VO [by ale_x2008]
Director : by ale_X2008
Writing application : VirtualDubMod 1.5.10.2 (build 2540/release)
Copyright : Edich2
Comment : RuTracker.org
Video
ID : 0
Format : MPEG-4 Visual
Format profile : Advanced [email protected]
Format settings : BVOP1 / Custom Matrix
Format settings, BVOP : 1
Format settings, QPel : No
Format settings, GMC : No warppoints
Format settings, Matrix : Custom
Codec ID : XVID
Codec ID/Hint : XviD
Duration : 1 h 16 min
Bit rate : 1 900 kb/s
Width : 704 pixels
Height : 272 pixels
Display aspect ratio : 2.588
Frame rate : 23.976 (24000/1001) FPS
Color space : YUV
Chroma subsampling : 4:2:0
Bit depth : 8 bits
Scan type : Progressive
Compression mode : Lossy
Bits/(Pixel*Frame) : 0.414
Stream size : 1.01 GiB (74%)
Writing library : XviD 65
Audio #1
ID : 1
Format : AC-3
Format/Info : Audio Coding 3
Commercial name : Dolby Digital
Codec ID : 2000
Duration : 1 h 16 min
Bit rate mode : Constant
Bit rate : 192 kb/s
Channel(s) : 2 channels
Channel layout : L R
Sampling rate : 48.0 kHz
Frame rate : 31.250 FPS (1536 SPF)
Compression mode : Lossy
Stream size : 104 MiB (7%)
Alignment : Split across interleaves
Interleave, duration : 42 ms (1.01 video frame)
Interleave, preload duratio : 500 ms
Service kind : Complete Main
Audio #2
ID : 2
Format : AC-3
Format/Info : Audio Coding 3
Commercial name : Dolby Digital
Codec ID : 2000
Duration : 1 h 16 min
Bit rate mode : Constant
Bit rate : 448 kb/s
Channel(s) : 6 channels
Channel layout : L R C LFE Ls Rs
Sampling rate : 48.0 kHz
Frame rate : 31.250 FPS (1536 SPF)
Compression mode : Lossy
Stream size : 245 MiB (18%)
Alignment : Split across interleaves
Interleave, duration : 42 ms (1.00 video frame)
Interleave, preload duratio : 500 ms
Service kind : Complete Main

Скриншоты




Display posts:    

Current time is: 05-Mar 11:13

All times are UTC ± 0


You cannot post new topics in this forum
You cannot reply to topics in this forum
You cannot edit your posts in this forum
You cannot delete your posts in this forum
You cannot vote in polls in this forum
You cannot attach files in this forum
You cannot download files in this forum

!ATTENTION!
The site does not give electronic versions of products, and is engaged only in a collecting and cataloguing of the references sent and published at a forum by our readers. If you are the legal owner of any submitted material and do not wish that the reference to it was in our catalogue, contact us and we shall immediately remove her. Files for an exchange on tracker are given by users of a site, and the administration does not bear the responsibility for their maintenance. The request to not fill in the files protected by copyrights, and also files of the illegal maintenance!