Ивановский Торрент трекер
Яндекс.Погода
 

[Quote]
HUNTER

Кошки в твоей жизниNekoban 3D: Tobidasu nyanko
Neco-Ban: Cats in Your Life
- Год выпуска: 2011
Страна: Япония
Жанр: семейный
Продолжительность: 01:04:37
Перевод: Одноголосый закадровый - D.I.M.
Режиссер: Кен Арима / Ken Arima-В ролях: Масато Ибу, Кеи Катаяма, Рири, Ироха Окуда, Нами Уэхара, котики-Описание: Это короткая, незатейливая история о неразговорчивом, нелюдимом пожилом мужчине, недавно вышедшем на пенсию, и его сонной внучке. Но не менее важное место в фильме уделено показу жизни котиков, регулярно захаживающих в его дом...-Доп. инфо: Фильм специально заточен под демонстрацию 3D, и показ котиков.
3D приятное, довольно глубокое. Некоторые сцены в псевдо 3D (смотрите внизу скрины анимации 3D).
На BD 3D фильм был в формате горизонтальной анаморфной стереопары.-Премьера (мир): 22 января 2011
. . -Качество: BDRemux
Контейнер: MKV
Формат 3D: Half SideBySide / Горизонтальная анаморфная стереопара
Порядок ракурсов: левый ракурс первый-Видео: AVC / 1920х1080p / 23,976 fps / 17.6 Mbps
Аудио:
#1 - Русский / AC3 / 48 KHz / 2.0 ch / 192 Kbps (VO - D.I.M.)
#2 - Japanese / AC3 / 48 KHz / 2.0 ch / 192 Kbps (Original - BD 3D)
Субтитры: Внешние (SRT UTF-8) English Full (BD)

MediaInfo

General
Unique ID : 245598552612187311238566655078511448625 (0xB8C48F888DCE1863BC764826F7309231)
Complete name : D:\Neco-Ban.CatsInYourLife(2011)3D-hSBS(BDRemux)VO\Neco-Ban.CatsInYourLife(2011)3D-hSBS(BDRemux)VO.mkv
Format : Matroska
Format version : Version 2
File size : 8.30 GiB
Duration : 1 h 4 min
Overall bit rate mode : Variable
Overall bit rate : 18.4 Mb/s
Movie name : Кошки в твоей жизни / Nekoban 3D: Tobidasu nyanko / Neco-Ban: Cats in Your Life (2011) in 3D
Encoded date : UTC 2021-04-30 00:18:35
Writing application : mkvmerge v5.8.0 ('No Sleep / Pillow') built on Sep 2 2012 15:37:04
Writing library : libebml v1.2.3 + libmatroska v1.3.0
Video
ID : 1
Format : AVC
Format/Info : Advanced Video Codec
Format profile : [email protected]
Format settings : CABAC / 4 Ref Frames
Format settings, CABAC : Yes
Format settings, Reference : 4 frames
Codec ID : V_MPEG4/ISO/AVC
Duration : 1 h 4 min
Bit rate mode : Variable
Bit rate : 17.6 Mb/s
Maximum bit rate : 38.0 Mb/s
Width : 1 920 pixels
Height : 1 080 pixels
Display aspect ratio : 16:9
Frame rate mode : Constant
Frame rate : 23.976 (24000/1001) FPS
Standard : NTSC
Color space : YUV
Chroma subsampling : 4:2:0
Bit depth : 8 bits
Scan type : Progressive
Bits/(Pixel*Frame) : 0.355
Stream size : 7.96 GiB (96%)
Title : BDRemux
Language : Japanese
Default : Yes
Forced : No
Color range : Limited
Color primaries : BT.709
Transfer characteristics : BT.709
Matrix coefficients : BT.709
Audio #1
ID : 2
Format : AC-3
Format/Info : Audio Coding 3
Commercial name : Dolby Digital
Codec ID : A_AC3
Duration : 1 h 4 min
Bit rate mode : Constant
Bit rate : 192 kb/s
Channel(s) : 2 channels
Channel layout : L R
Sampling rate : 48.0 kHz
Frame rate : 31.250 FPS (1536 SPF)
Compression mode : Lossy
Stream size : 88.7 MiB (1%)
Title : VO - D.I.M.
Language : Russian
Service kind : Complete Main
Default : Yes
Forced : No
Audio #2
ID : 3
Format : AC-3
Format/Info : Audio Coding 3
Commercial name : Dolby Digital
Codec ID : A_AC3
Duration : 1 h 4 min
Bit rate mode : Constant
Bit rate : 192 kb/s
Channel(s) : 2 channels
Channel layout : L R
Sampling rate : 48.0 kHz
Frame rate : 31.250 FPS (1536 SPF)
Compression mode : Lossy
Stream size : 88.7 MiB (1%)
Title : Original
Language : Japanese
Service kind : Complete Main
Default : No
Forced : No
Menu
00:00:00.000 : :1
00:00:11.094 : :2
00:04:22.637 : :3
00:10:51.401 : :4
00:16:05.965 : :5
00:22:18.671 : :6
00:28:36.924 : :7
00:33:56.785 : :8
00:38:30.975 : :9
00:43:31.108 : :10
00:49:59.246 : :11
00:56:02.025 : :12
01:01:07.873 : :13

Для оценки 3Д - Анимированные скрины



























Display posts:    

Current time is: 12-Jun 23:39

All times are UTC ± 0


You cannot post new topics in this forum
You cannot reply to topics in this forum
You cannot edit your posts in this forum
You cannot delete your posts in this forum
You cannot vote in polls in this forum
You cannot attach files in this forum
You cannot download files in this forum

!ATTENTION!
The site does not give electronic versions of products, and is engaged only in a collecting and cataloguing of the references sent and published at a forum by our readers. If you are the legal owner of any submitted material and do not wish that the reference to it was in our catalogue, contact us and we shall immediately remove her. Files for an exchange on tracker are given by users of a site, and the administration does not bear the responsibility for their maintenance. The request to not fill in the files protected by copyrights, and also files of the illegal maintenance!