Ивановский Торрент трекер
Яндекс.Погода
 

[Quote]
HUNTER

Книжный в Дэнкигай / Denki-gai no Honya-san / Denkigai no Honya-san
Страна: Япония
Год выпуска: 2014
Жанр: Комедия, повседневность, пародия
Тип: TV
Продолжительность: 25 мин
Режиссер: Сато Масафуми
Студия: Shin-Ei Animation
Описание: История Умио - работника на полставки в магазине додзинси «Лошадиная кость» и его колег. У них нетипичная рабочая жизнь присущая книжному продающему додзинси, специфические евенты и необычные рекламные мероприятия. У всех работников и посетителей книжного в дэнкигай есть, мягко говоря, свои странности, поэтому в Уманохоне не бывает скучных будней.
Качество: BDRip
Тип релиза: Без хардсаба
Формат видео: MKV
Наличие линковки: Нет
Релиз/Автор рипа: Moozzi2
Видео: AVC, 1920x1080p, 3 805 kb/s, 23.976 FPS, 8 bits
Аудио: FLAC, 1 396 kb/s, 48.0 kHz, 2 channels, Язык Японский
Аудио 2: AAC, 192 kb/s, 48.0 kHz, 2 channels, Язык Русский (внешним файлом), Озвучка (муж.+жен.): GreyMoon, Hekomi, Oni, Ruri
Субтитры: ass, отдельным файлом, Язык субтитров Русский, Перевод: LookerA

Подробные тех. данные

Format : Matroska
Format version : Version 4 / Version 2
File size : 892 MiB
Duration : 23 min 58 s
Overall bit rate mode : Variable
Overall bit rate : 5 202 kb/s
Encoded date : UTC 2016-09-27 23:07:01
Writing application : mkvmerge v9.2.0 ('Photograph') 64bit
Writing library : libebml v1.3.3 + libmatroska v1.4.4
Video
ID : 1
Format : AVC
Format/Info : Advanced Video Codec
Format profile : [email protected]
Format settings : CABAC / 5 Ref Frames
Format settings, CABAC : Yes
Format settings, ReFrames : 5 frames
Codec ID : V_MPEG4/ISO/AVC
Duration : 23 min 58 s
Bit rate : 3 805 kb/s
Width : 1 920 pixels
Height : 1 080 pixels
Display aspect ratio : 16:9
Frame rate mode : Constant
Frame rate : 23.976 (24000/1001) FPS
Color space : YUV
Chroma subsampling : 4:2:0
Bit depth : 8 bits
Scan type : Progressive
Bits/(Pixel*Frame) : 0.077
Stream size : 652 MiB (73%)
Writing library : x264 core 148 r2638 7599210
Encoding settings : cabac=1 / ref=5 / deblock=1:1:1 / analyse=0x3:0x113 / me=umh / subme=9 / psy=1 / psy_rd=0.70:0.00 / mixed_ref=1 / me_range=32 / chroma_me=1 / trellis=0 / 8x8dct=1 / cqm=0 / deadzone=21,11 / fast_pskip=0 / chroma_qp_offset=-2 / threads=12 / lookahead_threads=1 / sliced_threads=0 / nr=0 / decimate=1 / interlaced=0 / bluray_compat=0 / constrained_intra=0 / bframes=3 / b_pyramid=2 / b_adapt=2 / b_bias=0 / direct=1 / weightb=1 / open_gop=0 / weightp=2 / keyint=240 / keyint_min=23 / scenecut=40 / intra_refresh=0 / rc_lookahead=40 / rc=crf / mbtree=1 / crf=17.0 / qcomp=0.60 / qpmin=0 / qpmax=69 / qpstep=4 / ip_ratio=1.40 / aq=1:1.00
Language : Japanese
Default : Yes
Forced : No
Audio
ID : 2
Format : FLAC
Format/Info : Free Lossless Audio Codec
Codec ID : A_FLAC
Duration : 23 min 58 s
Bit rate mode : Variable
Bit rate : 1 396 kb/s
Channel(s) : 2 channels
Channel positions : Front: L R
Sampling rate : 48.0 kHz
Frame rate : 11.719 FPS (4096 SPF)
Bit depth : 24 bits
Stream size : 239 MiB (27%)
Writing library : libFLAC 1.3.1 (UTC 2014-11-25)
Language : Japanese
Default : Yes
Forced : No

Отличия

https://rutracker.org/forum/viewtopic.php?t=4839586 - BDRip, 1080p, наличие русскоязычной дорожки
https://rutracker.org/forum/viewtopic.php?t=4858000 - BDRip, 1080p
https://rutracker.org/forum/viewtopic.php?t=4839632 - BDRip, наличие русскоязычной дорожки

Скриншоты



Display posts:    

Current time is: 02-Dec 22:30

All times are UTC ± 0


You cannot post new topics in this forum
You cannot reply to topics in this forum
You cannot edit your posts in this forum
You cannot delete your posts in this forum
You cannot vote in polls in this forum
You cannot attach files in this forum
You cannot download files in this forum

!ATTENTION!
The site does not give electronic versions of products, and is engaged only in a collecting and cataloguing of the references sent and published at a forum by our readers. If you are the legal owner of any submitted material and do not wish that the reference to it was in our catalogue, contact us and we shall immediately remove her. Files for an exchange on tracker are given by users of a site, and the administration does not bear the responsibility for their maintenance. The request to not fill in the files protected by copyrights, and also files of the illegal maintenance!