Ивановский Торрент трекер
Яндекс.Погода
 

[Quote]
HUNTER

Клара / Clara
Страна: Канада, США
Жанр: Фантастика
Год выпуска: 2018
Продолжительность: 01:45:03
Перевод: Любительский (многоголосый закадровый) HDRezka Studio
Субтитры: Русские (forced), английские, французские
Оригинальная аудиодорожка: Английский
Режиссер: Акаш Шерман / Akash Sherman
В ролях: Патрик Джей Адамс, Тройэн Эвери Беллисарио, Уилл Боус, Дженнифер Дэйл, Эннис Эсмер, Габриэль Грэхэм, Кристен Хагер, Кевин Ханчард, Samuel A. Harding, Бетани Хо
Описание: Исаака Бруно, профессора астрономии, увольняют с работы за использование университетского оборудования в личных целях. Тем не менее Исаак продолжает свои исследования — поиск обитаемых планет за пределами Солнечной системы. Вскоре к нему присоединяется Клара, новый научный сотрудник, чей духовный взгляд на жизнь контрастирует с явно рациональными научными взглядами Исаака.

Тип релиза: BDRemux 1080p
Контейнер: MKV
Видео: MPEG-2, 1080p, 1920:1080 (16:9), 17641 kbps, 23.976 fps
Аудио 1: АС3, 6 ch, 48 kHz, 448 kbps, 16 bits Русский MVO HDRezka Studio
Аудио 2: DTS-HD MA, 6 ch, 48 kHz, 3570 kbps, 24-bit (DTS Core 6 ch, 48 kHz, 1509 kbps, 24-bit) Английский
Формат субтитров: SRT

MediaInfo

General
Unique ID : 244583203933104500707387322252879792991 (0xB80102FA811F77F228E93A713A2D0B5F)
Complete name : S:\Clara.2018.REMUX.mkv
Format : Matroska
Format version : Version 4
File size : 15.9 GiB
Duration : 1 h 45 min
Overall bit rate mode : Variable
Overall bit rate : 21.7 Mb/s
Encoded date : UTC 2020-10-18 16:20:06
Writing application : mkvmerge v20.0.0 ('I Am The Sun') 64-bit
Writing library : libebml v1.3.5 + libmatroska v1.4.8
Video
ID : 1
Format : MPEG Video
Format version : Version 2
Format profile : [email protected]
Format settings : CustomMatrix / BVOP
Format settings, BVOP : Yes
Format settings, Matrix : Custom
Format settings, GOP : M=3, N=15
Codec ID : V_MPEG2
Codec ID/Info : MPEG 1 or 2 Video
Duration : 1 h 45 min
Bit rate mode : Variable
Bit rate : 17.6 Mb/s
Maximum bit rate : 25.0 Mb/s
Width : 1 920 pixels
Height : 1 080 pixels
Display aspect ratio : 16:9
Frame rate mode : Constant
Frame rate : 23.976 (24000/1001) FPS
Color space : YUV
Chroma subsampling : 4:2:0
Bit depth : 8 bits
Scan type : Progressive
Compression mode : Lossy
Bits/(Pixel*Frame) : 0.355
Time code of first frame : 00:00:00:00
Time code source : Group of pictures header
GOP, Open/Closed : Closed
Stream size : 12.9 GiB (81%)
Language : English
Default : Yes
Forced : No
Audio #1
ID : 2
Format : AC-3
Format/Info : Audio Coding 3
Commercial name : Dolby Digital
Codec ID : A_AC3
Duration : 1 h 45 min
Bit rate mode : Constant
Bit rate : 448 kb/s
Channel(s) : 6 channels
Channel layout : L R C LFE Ls Rs
Sampling rate : 48.0 kHz
Frame rate : 31.250 FPS (1536 SPF)
Compression mode : Lossy
Stream size : 337 MiB (2%)
Title : MVO HDRezka Studio
Language : Russian
Service kind : Complete Main
Default : Yes
Forced : No
Audio #2
ID : 3
Format : DTS XLL
Format/Info : Digital Theater Systems
Commercial name : DTS-HD Master Audio
Codec ID : A_DTS
Duration : 1 h 45 min
Bit rate mode : Variable
Bit rate : 3 570 kb/s
Channel(s) : 6 channels
Channel layout : C L R Ls Rs LFE
Sampling rate : 48.0 kHz
Frame rate : 93.750 FPS (512 SPF)
Bit depth : 24 bits
Compression mode : Lossless
Stream size : 2.62 GiB (16%)
Language : English
Default : No
Forced : No
Text #1
ID : 4
Format : UTF-8
Codec ID : S_TEXT/UTF8
Codec ID/Info : UTF-8 Plain Text
Duration : 1 h 40 min
Bit rate : 5 b/s
Count of elements : 66
Stream size : 3.97 KiB (0%)
Title : forced
Language : Russian
Default : Yes
Forced : No
Text #2
ID : 5
Format : UTF-8
Codec ID : S_TEXT/UTF8
Codec ID/Info : UTF-8 Plain Text
Duration : 1 h 40 min
Bit rate : 59 b/s
Count of elements : 1337
Stream size : 44.0 KiB (0%)
Language : English
Default : No
Forced : No
Text #3
ID : 6
Format : UTF-8
Codec ID : S_TEXT/UTF8
Codec ID/Info : UTF-8 Plain Text
Duration : 1 h 40 min
Bit rate : 71 b/s
Count of elements : 1340
Stream size : 52.4 KiB (0%)
Language : French
Default : No
Forced : No
Menu
00:00:00.000 : :Chapter 01
00:11:30.690 : :Chapter 02
00:23:28.407 : :Chapter 03
00:37:28.246 : :Chapter 04
00:49:12.950 : :Chapter 05
01:01:55.712 : :Chapter 06
01:15:48.544 : :Chapter 07
01:31:07.462 : :Chapter 08
01:40:42.036 : :Chapter 09

Скриншоты





Display posts:    

Current time is: 24-Nov 12:29

All times are UTC ± 0


You cannot post new topics in this forum
You cannot reply to topics in this forum
You cannot edit your posts in this forum
You cannot delete your posts in this forum
You cannot vote in polls in this forum
You cannot attach files in this forum
You cannot download files in this forum

!ATTENTION!
The site does not give electronic versions of products, and is engaged only in a collecting and cataloguing of the references sent and published at a forum by our readers. If you are the legal owner of any submitted material and do not wish that the reference to it was in our catalogue, contact us and we shall immediately remove her. Files for an exchange on tracker are given by users of a site, and the administration does not bear the responsibility for their maintenance. The request to not fill in the files protected by copyrights, and also files of the illegal maintenance!