Ивановский Торрент трекер
Яндекс.Погода
 

[Quote]
HUNTER

Хозяйка тайги, Хозяйка тайги-2. К морю
Год выпуска: 2009-2012
Страна: Россия
Жанр: криминал, приключения, боевик
Продолжительность: 40 x ~ 00:45:00
Субтитры: Нет
Режиссёр: Борис Казаков, Александр Замятин
В ролях: Марина Казанкова, Александр Бухаров, Александр Лазарев (младший), Рамиль Сабитов, Георгий Штиль, Татьяна Кравченко, Василий Мищенко, Сергей Паршин, Георгий Николаенко, Борис Невзоров, Пётр Кислов, Максим Коновалов, Игорь Арташонов, Габриэлла Мариани, Марина Яковлева, Владимир Бадов, Александр Кульков, Сергей Шувалов, Давид Ткебучава, Георгий Мушеев, Денис Беспалый, Сергей Векслер, Алексей Шевченков, Александр Ефимов, Дмитрий Матвеев, Сергей Цепов, Денис Карасёв, Константин Желдин, Владимир Горюшин, Игорь Голубев (III), Кирилл Кяро, Александр Денисов (III), Петр Томашевский, Аркадий Левин, Валерий Кондрашов, Ирина Чипиженко, Александр Белов (V), Мария Погребничко, Дмитрий Ломовский, Андрей Казаков (II), Алексей Кузьмин, Кристина Бабушкина, Ольга Дибцева, Анатолий Кот, Анастасия Макеева, Андрей Зубков, Вячеслав Титов, Анатолий Гущин, Роман Агеев, Александр Синюков, Линда Нигматулина, Михаил Водзуми, Борис Казаков (II), Геннадий Макоев, Борис Тенин (II), Хитоси Хирано, Александр Пожаров, Юрий Шлыков, Владимир Стержаков, Александр Терешко, Дарья Волга, Мария Звонарёва, Александр Ильин, Раиса Рязанова, Дарья Белоусова (II), Андрей Фролов, Владимир Гусев (II), Алексей Ошурков, Леонид Тимцуник, Антон Колесников, Татьяна Федоровская
Описание:
Хозяйка тайги: Место действия — районы золотодобычи на Крайнем Севере и территория государственного заповедника. Егерь Василиса и охранник золотоперерабатывающего предприятия Константин волею случая оказываются втянутыми в нечистоплотные игры местной элиты. Им предстоит нелегкий выбор: закрыть глаза на разграбление родного края или бороться с риском для жизни. Северная природа, сильные характеры и неожиданная развязка...
Хозяйка тайги-2. К морю: Продолжение всеми любимого сериала о милиционере Константине Воеводине и его верной супруге Василисе. Василиса - егерь, и просто влюблена в сибирскую тайгу, свой родной край. Но жизнь не стоит на месте и её муж получает назначение на новое место работы. Супруги не могут расстаться и вместе перебираются жить в небольшой приморский поселок на юге России. Как ни странно, но ни ласковое море, ни палящее южное солнце, ни ленивая атмосфера курорта, ничто так и не спасло их от безумных приключений и опасности, подстерегающей на каждому углу. Не все так спокойно в курортном королевстве, и в новых сериях чете Воеводиных не дадут заскучать.

Реклама: Нет
Сэмпл: http://multi-up.com/1275752
Качество: DVDRip-AVC, WEBRip-AVC
Формат: MKV
Видео кодек: H.264
Аудио кодек: AC3
Видео: MPEG-4 (AVC), ~ [email protected]х428, 25 fps, ~ 1800 kbps, ~ 0.23 bit/pixel | Хозяйка тайги
Видео: MPEG-4 (AVC), 1024x576, 25 fps, ~ 1800 kbps, ~ 0.12 bit/pixel | Хозяйка тайги-2. К морю
Аудио: AC3, 48.0 kHz, 2 ch, 192 Kbps | Хозяйка тайги
Аудио: AAC, 44.1 kHz, 2 ch, 192 Kbps | Хозяйка тайги-2. К морю

MI

General
Unique ID : 238355527111805447451619200892613577516 (0xB3519ACE1C0F0680927709899C624B2C)
Complete name : Хозяйка тайги (01 сер.).mkv
Format : Matroska
Format version : Version 2
File size : 654 MiB
Duration : 45 min 52 s
Overall bit rate : 1 994 kb/s
Encoded date : UTC 2021-03-07 09:18:39
Writing application : mkvmerge v7.8.0 ('River Man') 32bit built on Apr 3 2015 12:11:22
Writing library : libebml v1.3.1 + libmatroska v1.4.2
Video
ID : 1
Format : AVC
Format/Info : Advanced Video Codec
Format profile : [email protected]
Format settings : CABAC / 9 Ref Frames
Format settings, CABAC : Yes
Format settings, Reference : 9 frames
Codec ID : V_MPEG4/ISO/AVC
Duration : 45 min 52 s
Bit rate : 1 800 kb/s
Width : 720 pixels
Height : 428 pixels
Display aspect ratio : 16:9
Frame rate mode : Constant
Frame rate : 25.000 FPS
Color space : YUV
Chroma subsampling : 4:2:0
Bit depth : 8 bits
Scan type : Progressive
Bits/(Pixel*Frame) : 0.234
Stream size : 578 MiB (88%)
Writing library : x264 core 157 r2935 545de2f
Encoding settings : cabac=1 / ref=9 / deblock=1:-1:-1 / analyse=0x3:0x133 / me=umh / subme=10 / psy=1 / psy_rd=1.00:0.15 / mixed_ref=1 / me_range=24 / chroma_me=1 / trellis=2 / 8x8dct=1 / cqm=0 / deadzone=21,11 / fast_pskip=1 / chroma_qp_offset=-3 / threads=9 / lookahead_threads=1 / sliced_threads=0 / nr=0 / decimate=1 / interlaced=0 / bluray_compat=0 / stitchable=1 / constrained_intra=0 / bframes=9 / b_pyramid=2 / b_adapt=2 / b_bias=0 / direct=3 / weightb=1 / open_gop=0 / weightp=2 / keyint=250 / keyint_min=25 / scenecut=40 / intra_refresh=0 / rc_lookahead=60 / rc=2pass / mbtree=1 / bitrate=1800 / ratetol=1.0 / qcomp=0.60 / qpmin=0 / qpmax=69 / qpstep=4 / cplxblur=20.0 / qblur=0.5 / ip_ratio=1.40 / aq=1:1.00
Default : Yes
Forced : No
Audio
ID : 2
Format : AC-3
Format/Info : Audio Coding 3
Commercial name : Dolby Digital
Codec ID : A_AC3
Duration : 45 min 52 s
Bit rate mode : Constant
Bit rate : 192 kb/s
Channel(s) : 2 channels
Channel layout : L R
Sampling rate : 48.0 kHz
Frame rate : 31.250 FPS (1536 SPF)
Compression mode : Lossy
Stream size : 63.0 MiB (10%)
Service kind : Complete Main
Default : Yes
Forced : No
-------------------------------------------------------------------------------------
General
Unique ID : 3732637091029663113560330701312476170 (0x2CEE1379784116C1E8A5CC940FDC40A)
Complete name : Хозяйка тайги-2. К морю (01 сер.).mkv
Format : Matroska
Format version : Version 4
File size : 645 MiB
Duration : 45 min 21 s
Overall bit rate : 1 987 kb/s
Encoded date : UTC 2021-03-06 07:36:43
Writing application : mkvmerge v54.0.0 ('F Maj Pixie') 64-bit
Writing library : libebml v1.4.2 + libmatroska v1.6.3
Video
ID : 1
Format : AVC
Format/Info : Advanced Video Codec
Format profile : [email protected]
Format settings : 5 Ref Frames
Format settings, CABAC : No
Format settings, Reference : 5 frames
Codec ID : V_MPEG4/ISO/AVC
Duration : 45 min 21 s
Bit rate : 1 800 kb/s
Width : 1 024 pixels
Height : 576 pixels
Display aspect ratio : 16:9
Frame rate mode : Constant
Frame rate : 25.000 FPS
Color space : YUV
Chroma subsampling : 4:2:0
Bit depth : 8 bits
Scan type : Progressive
Bits/(Pixel*Frame) : 0.122
Stream size : 582 MiB (90%)
Writing library : x264 core 120
Encoding settings : cabac=0 / ref=5 / deblock=1:0:0 / analyse=0x1:0x131 / me=umh / subme=7 / psy=1 / psy_rd=1.00:0.40 / mixed_ref=1 / me_range=16 / chroma_me=1 / trellis=0 / 8x8dct=0 / cqm=0 / deadzone=21,11 / fast_pskip=0 / chroma_qp_offset=-2 / threads=12 / sliced_threads=0 / nr=0 / decimate=1 / interlaced=0 / bluray_compat=0 / constrained_intra=0 / bframes=0 / weightp=0 / keyint=75 / keyint_min=26 / scenecut=40 / intra_refresh=0 / rc_lookahead=40 / rc=2pass / mbtree=0 / bitrate=1800 / ratetol=1.0 / qcomp=0.60 / qpmin=10 / qpmax=51 / qpstep=4 / cplxblur=20.0 / qblur=0.5 / vbv_maxrate=2000 / vbv_bufsize=2000 / nal_hrd=none / ip_ratio=1.40 / aq=1:1.00
Default : Yes
Forced : No
Color range : Limited
Color primaries : BT.601 NTSC
Transfer characteristics : BT.709
Matrix coefficients : BT.601
Audio
ID : 2
Format : AAC LC
Format/Info : Advanced Audio Codec Low Complexity
Codec ID : A_AAC-2
Duration : 45 min 21 s
Bit rate : 192 kb/s
Channel(s) : 2 channels
Channel layout : L R
Sampling rate : 44.1 kHz
Frame rate : 43.066 FPS (1024 SPF)
Compression mode : Lossy
Stream size : 62.3 MiB (10%)
Default : Yes
Forced : No

Скриншоты


Предыдущие и альтернативные раздачи


Display posts:    

Current time is: 14-May 07:29

All times are UTC ± 0


You cannot post new topics in this forum
You cannot reply to topics in this forum
You cannot edit your posts in this forum
You cannot delete your posts in this forum
You cannot vote in polls in this forum
You cannot attach files in this forum
You cannot download files in this forum

!ATTENTION!
The site does not give electronic versions of products, and is engaged only in a collecting and cataloguing of the references sent and published at a forum by our readers. If you are the legal owner of any submitted material and do not wish that the reference to it was in our catalogue, contact us and we shall immediately remove her. Files for an exchange on tracker are given by users of a site, and the administration does not bear the responsibility for their maintenance. The request to not fill in the files protected by copyrights, and also files of the illegal maintenance!