Карты, деньги, два ствола / Lock, Stock and Two Smoking Barrels (Гай Ричи) [1998,триллер, криминал,BDRip-AVC] :: Российский Торрент трекер
Российский Торрент трекер
Яндекс.Погода
 

[Quote]
Shalun

-Карты, деньги, два ствола / Lock, Stock and Two Smoking Barrels- Информация о фильме
Название: Карты, деньги, два ствола
Оригинальное название: Lock, Stock and Two Smoking Barrels
Год выхода: 1998
Жанр: триллер, криминал
Режиссер: Гай Ричи
В ролях: Джейсон Стэйтем, Ник Моран, Джейсон Флеминг, Декстер Флетчер, Винни Джонс, Стинг, Стивен Макинтош, Николас Роу, Ник Марк, Чарльз Форбс-О фильме:
Четверо молодых парней накопили каждый по 25 тысяч фунтов, чтобы один из них мог сыграть в карты с опытным шулером и матерым преступником, известным по кличке Гарри-Топор. Парень в итоге проиграл 500 тысяч, на уплату долга ему дали неделю.
В противном случае и ему и его «спонсорам» каждый день будут отрубать по пальцу, а потом… Чтобы выйти из положения, ребята решили ограбить бандитов, решивших ограбить трех «ботаников», выращивающих марихуану для местного наркобарона. Но на этом приключения четверки не заканчиваются…- -Страна: Великобритания
Продолжительность: 01:47:23
Перевод: Многоголосый закадровый (Киномания) + Авторский одноголосый (Гоблин) + Двухголосый закадровый, украинский ("ТК" Кино) + Оригинал (Английский)-Файл
Кодек: h.264
Качество: BDRip-AVC
Видео: 1024x554 (16:9), 23.976 fps, 1812 kbps, 0.133 bit/pixel-Аудио#1: 48 kHz, AC3 5.1, 320.00 kbps (Киномания)
Аудио#2: 48 kHz, AC3 5.1, 320.00 kbps (Гоблин)
Аудио#3: 48 kHz, AC3 5.1, 320.00 kbps (Украинский,"ТК" Кино)
Аудио#4: 48 kHz, AC3 2.0, 128.00 kbps (Английский)
Субтитры: Русские (Киномания), Русские (Гоблин), Украинские, Английские - вшитые отключаемые-

MediaInfo

Общее
Уникальный идентификатор : 193288986522388585207702695530790606067 (0x916A1ACE096F4CE794CC112E638354F3)
Полное имя : D:Lock, Stock and Two Smoking Barrels.1998.BDRip-AVC.mkv
Формат : Matroska
Версия формата : Version 2
Размер файла : 2,18 Гбайт
Продолжительность : 1 ч. 47 м.
Общий поток : 2901 Кбит/сек
Название фильма : Карты, деньги и два ствола / Lock, Stock and Two Smoking Barrels (1998) BDRip-AVC rip by Rulya74
Дата кодирования : UTC 2012-08-16 12:25:19
Программа кодирования : mkvmerge v5.6.0 ('Kenya Kane') built on May 27 2012 16:44:04
Библиотека кодирования : libebml v1.2.3 + libmatroska v1.3.0
Видео
Идентификатор : 1
Формат : AVC
Формат/Информация : Advanced Video Codec
Профиль формата : [email protected]
Параметр CABAC формата : Да
Параметр ReFrames формата : 12 кадров
Идентификатор кодека : V_MPEG4/ISO/AVC
Продолжительность : 1 ч. 47 м.
Битрейт : 1812 Кбит/сек
Ширина : 1024 пикселя
Высота : 554 пикселя
Соотношение сторон : 16:9
Частота кадров : 23,976 кадра/сек
Цветовое пространство : YUV
Субдискретизация насыщенности : 4:2:0
Битовая глубина : 8 бит
Тип развёртки : Прогрессивная
Бит/(Пиксели*Кадры) : 0.133
Размер потока : 1,32 Гбайт (61%)
Библиотека кодирования : x264 core 125 r2200 999b753
Настройки программы : cabac=1 / ref=12 / deblock=1:-2:-1 / analyse=0x3:0x113 / me=umh / subme=10 / psy=1 / psy_rd=1.00:0.00 / mixed_ref=1 / me_range=36 / chroma_me=1 / trellis=2 / 8x8dct=1 / cqm=0 / deadzone=21,11 / fast_pskip=1 / chroma_qp_offset=-2 / threads=14 / lookahead_threads=2 / sliced_threads=0 / nr=0 / decimate=1 / interlaced=0 / bluray_compat=0 / constrained_intra=0 / bframes=11 / b_pyramid=2 / b_adapt=1 / b_bias=0 / direct=3 / weightb=1 / open_gop=0 / weightp=2 / keyint=240 / keyint_min=23 / scenecut=40 / intra_refresh=0 / rc=2pass / mbtree=0 / bitrate=1812 / ratetol=1.0 / qcomp=0.60 / qpmin=10 / qpmax=51 / qpstep=4 / cplxblur=20.0 / qblur=0.5 / ip_ratio=1.40 / pb_ratio=1.30 / aq=1:1.00
Default : Да
Forced : Нет
Аудио #1
Идентификатор : 2
Формат : AC-3
Формат/Информация : Audio Coding 3
Расширение режима : CM (complete main)
Идентификатор кодека : A_AC3
Продолжительность : 1 ч. 47 м.
Вид битрейта : Постоянный
Битрейт : 320 Кбит/сек
Каналы : 6 каналов
Расположение каналов : Front: L C R, Side: L R, LFE
Частота : 48,0 КГц
Битовая глубина : 16 бит
Метод сжатия : С потерями
Размер потока : 246 Мбайт (11%)
Заголовок : Многоголосый закадровый (Киномания)
Язык : Russian
Default : Да
Forced : Нет
Аудио #2
Идентификатор : 3
Формат : AC-3
Формат/Информация : Audio Coding 3
Расширение режима : CM (complete main)
Идентификатор кодека : A_AC3
Продолжительность : 1 ч. 47 м.
Вид битрейта : Постоянный
Битрейт : 320 Кбит/сек
Каналы : 6 каналов
Расположение каналов : Front: L C R, Side: L R, LFE
Частота : 48,0 КГц
Битовая глубина : 16 бит
Метод сжатия : С потерями
Размер потока : 246 Мбайт (11%)
Заголовок : Авторский одноголосый (Гоблин)
Язык : Russian
Default : Нет
Forced : Нет
Аудио #3
Идентификатор : 4
Формат : AC-3
Формат/Информация : Audio Coding 3
Расширение режима : CM (complete main)
Идентификатор кодека : A_AC3
Продолжительность : 1 ч. 47 м.
Вид битрейта : Постоянный
Битрейт : 320 Кбит/сек
Каналы : 6 каналов
Расположение каналов : Front: L C R, Side: L R, LFE
Частота : 48,0 КГц
Битовая глубина : 16 бит
Метод сжатия : С потерями
Размер потока : 246 Мбайт (11%)
Заголовок : Двухголосый закадровый ("ТК" Кино)
Язык : Ukrainian
Default : Нет
Forced : Нет
Аудио #4
Идентификатор : 5
Формат : AC-3
Формат/Информация : Audio Coding 3
Расширение режима : CM (complete main)
Идентификатор кодека : A_AC3
Продолжительность : 1 ч. 47 м.
Вид битрейта : Постоянный
Битрейт : 128 Кбит/сек
Каналы : 2 канала
Расположение каналов : Front: L R
Частота : 48,0 КГц
Битовая глубина : 16 бит
Метод сжатия : С потерями
Размер потока : 98,3 Мбайт (4%)
Заголовок : Оригинал
Язык : English
Default : Нет
Forced : Нет
Текст #1
Идентификатор : 6
Формат : UTF-8
Идентификатор кодека : S_TEXT/UTF8
Идентификатор кодека/Информация : UTF-8 Plain Text
Заголовок : Киномания
Язык : Russian
Default : Нет
Forced : Нет
Текст #2
Идентификатор : 7
Формат : UTF-8
Идентификатор кодека : S_TEXT/UTF8
Идентификатор кодека/Информация : UTF-8 Plain Text
Заголовок : Гоблин
Язык : Russian
Default : Нет
Forced : Нет
Текст #3
Идентификатор : 8
Формат : UTF-8
Идентификатор кодека : S_TEXT/UTF8
Идентификатор кодека/Информация : UTF-8 Plain Text
Язык : Ukrainian
Default : Да
Forced : Нет
Текст #4
Идентификатор : 9
Формат : UTF-8
Идентификатор кодека : S_TEXT/UTF8
Идентификатор кодека/Информация : UTF-8 Plain Text
Язык : English
Default : Нет
Forced : Нет
-

Скриншоты

-


Display posts:    

Current time is: 13-Aug 04:20

All times are UTC ± 0


You cannot post new topics in this forum
You cannot reply to topics in this forum
You cannot edit your posts in this forum
You cannot delete your posts in this forum
You cannot vote in polls in this forum
You cannot attach files in this forum
You cannot download files in this forum

!ATTENTION!
The site does not give electronic versions of products, and is engaged only in a collecting and cataloguing of the references sent and published at a forum by our readers. If you are the legal owner of any submitted material and do not wish that the reference to it was in our catalogue, contact us and we shall immediately remove her. Files for an exchange on tracker are given by users of a site, and the administration does not bear the responsibility for their maintenance. The request to not fill in the files protected by copyrights, and also files of the illegal maintenance!