Ивановский Торрент трекер
Яндекс.Погода
 

[Quote]
HUNTER

Hardcore Vibes
Жанр: Hardcore, Gabber, Frenchcore
Носитель: CD
Страна-производитель диска (релиза): France
Год издания: 1997
Издатель (лейбл): Reel Up
Номер по каталогу: 823807 2
Аудиокодек: FLAC (*.flac)
Тип рипа: tracks+.cue
Продолжительность: 1:08:37
Источник: RED (Llamatron)
Наличие сканов в содержимом раздачи: нет
Треклист:
01 - DKP - Styx (Intro) (2:29)
02 - XMF - Machine II (5:20)
03 - 3D/Guiz Ohm & Micropoint - Zombie Smile (6:24)
04 - Lenny Dee - Forgotten Moments (6:08)
05 - Outlaw - X-Terror (6:33)
06 - Seige & Menace - Warped (4:34)
07 - Carbon Based - Huntin' N Haunting (6:09)
08 - Ingler - 2111 (5:36)
09 - Atomic Compressor - The Smoker (5:44)
10 - Omar Santana - Mind Ripper (5:43)
11 - Micropoint - Silence Of Death (5:48)
12 - Card Jams - What (5:38)
13 - DKP - Styx (Outro) (2:28)

Discogs.com

Лог создания рипа

Exact Audio Copy V1.3 from 2. September 2016
EAC extraction logfile from 25. April 2018, 20:35
Various / Hardcore vibes
Used drive : TSSTcorpCDDVDW SH-224DB Adapter: 1 ID: 0
Read mode : Secure
Utilize accurate stream : Yes
Defeat audio cache : Yes
Make use of C2 pointers : No
Read offset correction : 6
Overread into Lead-In and Lead-Out : No
Fill up missing offset samples with silence : Yes
Delete leading and trailing silent blocks : No
Null samples used in CRC calculations : Yes
Used interface : Native Win32 interface for Win NT & 2000
Gap handling : Appended to previous track
Used output format : User Defined Encoder
Selected bitrate : 896 kBit/s
Quality : High
Add ID3 tag : No
Command line compressor : C:\Program Files (x86)\Exact Audio Copy\Flac\flac.exe
Additional command line options : -8 -e -p -V -T "ARTIST=%artist%" -T "TITLE=%title%" -T "ALBUM=%albumtitle%" -T "DATE=%year%" -T "TRACKNUMBER=%tracknr%" -T "GENRE=%genre%" -T "PERFORMER=%albuminterpret%" -T "COMPOSER=%composer%" %haslyrics%--tag-from-file=LYRICS="%lyricsfile%"%haslyrics% -T "ALBUMARTIST=%albumartist%" -T "DISCNUMBER=%cdnumber%" -T "TOTALDISCS=%totalcds%" -T "TOTALTRACKS=%numtracks%" -T "COMMENT=%comment%" %source% -o %dest%
TOC of the extracted CD
Track | Start | Length | Start sector | End sector
---------------------------------------------------------
1 | 0:00.32 | 2:28.70 | 32 | 11201
2 | 2:29.27 | 5:19.43 | 11202 | 35169
3 | 7:48.70 | 6:23.60 | 35170 | 63954
4 | 14:12.55 | 6:07.62 | 63955 | 91541
5 | 20:20.42 | 6:32.38 | 91542 | 120979
6 | 26:53.05 | 4:34.10 | 120980 | 141539
7 | 31:27.15 | 6:09.27 | 141540 | 169241
8 | 37:36.42 | 5:36.33 | 169242 | 194474
9 | 43:13.00 | 5:44.37 | 194475 | 220311
10 | 48:57.37 | 5:43.23 | 220312 | 246059
11 | 54:40.60 | 5:48.27 | 246060 | 272186
12 | 60:29.12 | 5:38.15 | 272187 | 297551
13 | 66:07.27 | 2:27.63 | 297552 | 308639
Track 1
Filename E:\EAC\VA - Hardcore Vibes (1997) [FLAC]\01. DKP - Styx (intro).wav
Pre-gap length 0:00:02.32
Peak level 99.2 %
Extraction speed 1.9 X
Track quality 100.0 %
Test CRC 8C51AD75
Copy CRC 8C51AD75
Accurately ripped (confidence 2) [09F157CB] (AR v1)
Copy OK
Track 2
Filename E:\EAC\VA - Hardcore Vibes (1997) [FLAC]\02. XMF - Machine II.wav
Peak level 99.2 %
Extraction speed 2.1 X
Track quality 100.0 %
Test CRC 921522B4
Copy CRC 921522B4
Accurately ripped (confidence 2) [C7D3E9C3] (AR v1)
Copy OK
Track 3
Filename E:\EAC\VA - Hardcore Vibes (1997) [FLAC]\03. 3D,Guiz Ohm & Micropoint - Zombie Smile.wav
Pre-gap length 0:00:01.48
Peak level 99.2 %
Extraction speed 2.0 X
Track quality 99.9 %
Test CRC 75701FEA
Copy CRC 75701FEA
Accurately ripped (confidence 2) [ADEFF589] (AR v1)
Copy OK
Track 4
Filename E:\EAC\VA - Hardcore Vibes (1997) [FLAC]\04. Lenny Dee - Forgotten moments.wav
Pre-gap length 0:00:01.48
Peak level 99.2 %
Extraction speed 1.9 X
Track quality 99.9 %
Test CRC 149DB3F2
Copy CRC 149DB3F2
Accurately ripped (confidence 2) [34E63097] (AR v1)
Copy OK
Track 5
Filename E:\EAC\VA - Hardcore Vibes (1997) [FLAC]\05. Outlaw - X-Terror.wav
Pre-gap length 0:00:01.47
Peak level 94.3 %
Extraction speed 2.2 X
Track quality 100.0 %
Test CRC 0C1651E8
Copy CRC 0C1651E8
Accurately ripped (confidence 2) [958E6F38] (AR v1)
Copy OK
Track 6
Filename E:\EAC\VA - Hardcore Vibes (1997) [FLAC]\06. Seige & Menace - Warped.wav
Pre-gap length 0:00:01.48
Peak level 99.2 %
Extraction speed 2.1 X
Track quality 100.0 %
Test CRC C17E6DE9
Copy CRC C17E6DE9
Accurately ripped (confidence 2) [0815BB66] (AR v1)
Copy OK
Track 7
Filename E:\EAC\VA - Hardcore Vibes (1997) [FLAC]\07. Carbon based - Huntin' and Haunting.wav
Pre-gap length 0:00:01.48
Peak level 99.2 %
Extraction speed 2.2 X
Track quality 100.0 %
Test CRC B6D543F3
Copy CRC B6D543F3
Accurately ripped (confidence 2) [8E1B4780] (AR v1)
Copy OK
Track 8
Filename E:\EAC\VA - Hardcore Vibes (1997) [FLAC]\08. Ingler - 2111.wav
Pre-gap length 0:00:01.47
Peak level 99.2 %
Extraction speed 2.1 X
Track quality 100.0 %
Test CRC C92EAEFB
Copy CRC C92EAEFB
Accurately ripped (confidence 1) [849122E6] (AR v2)
Copy OK
Track 9
Filename E:\EAC\VA - Hardcore Vibes (1997) [FLAC]\09. Atomic compressor - The smoker.wav
Pre-gap length 0:00:01.48
Peak level 99.2 %
Extraction speed 2.1 X
Track quality 100.0 %
Test CRC F9D66002
Copy CRC F9D66002
Accurately ripped (confidence 1) [CF624F5E] (AR v2)
Copy OK
Track 10
Filename E:\EAC\VA - Hardcore Vibes (1997) [FLAC]\10. Omar Santana - Mind ripper.wav
Pre-gap length 0:00:01.47
Peak level 99.2 %
Extraction speed 2.0 X
Track quality 99.9 %
Test CRC 88739915
Copy CRC 88739915
Accurately ripped (confidence 1) [0902919D] (AR v2)
Copy OK
Track 11
Filename E:\EAC\VA - Hardcore Vibes (1997) [FLAC]\11. Micropoint - Silence of death.wav
Pre-gap length 0:00:01.48
Peak level 78.8 %
Extraction speed 2.1 X
Track quality 100.0 %
Test CRC 557CB7A5
Copy CRC 557CB7A5
Accurately ripped (confidence 1) [A1E456E0] (AR v2)
Copy OK
Track 12
Filename E:\EAC\VA - Hardcore Vibes (1997) [FLAC]\12. Card jams - What.wav
Pre-gap length 0:00:01.47
Peak level 99.2 %
Extraction speed 2.1 X
Track quality 100.0 %
Test CRC 86F4B576
Copy CRC 86F4B576
Accurately ripped (confidence 1) [0A43CB18] (AR v2)
Copy OK
Track 13
Filename E:\EAC\VA - Hardcore Vibes (1997) [FLAC]\13. DKP - Styx (outro).wav
Pre-gap length 0:00:01.47
Peak level 99.2 %
Extraction speed 1.9 X
Track quality 100.0 %
Test CRC 4FC72C32
Copy CRC 4FC72C32
Accurately ripped (confidence 1) [C1719DCD] (AR v2)
Copy OK
All tracks accurately ripped
No errors occurred
End of status report
---- CUETools DB Plugin V2.1.6
[CTDB TOCID: rz6i3YWclXN3F0sP895HHrEQbHI-] found
Submit result: already submitted
Track | CTDB Status
1 | (3/3) Accurately ripped
2 | (3/3) Accurately ripped
3 | (3/3) Accurately ripped
4 | (3/3) Accurately ripped
5 | (3/3) Accurately ripped
6 | (3/3) Accurately ripped
7 | (3/3) Accurately ripped
8 | (3/3) Accurately ripped
9 | (3/3) Accurately ripped
10 | (3/3) Accurately ripped
11 | (3/3) Accurately ripped
12 | (3/3) Accurately ripped
13 | (3/3) Accurately ripped
==== Log checksum BFC85975C78FDC3738374B39C47B6505844653588AAA24BA7224FDA883114867 ====

Содержание индексной карты (.CUE)

REM GENRE Hardcore
REM DATE 1997
REM DISCID C710130D
REM COMMENT "ExactAudioCopy v1.3"
PERFORMER "Various"
TITLE "Hardcore vibes"
FILE "01 - DKP - Styx (Intro).wav" WAVE
TRACK 01 AUDIO
TITLE "Styx (intro)"
PERFORMER "DKP"
PREGAP 00:00:32
INDEX 01 00:00:00
FILE "02 - XMF - Machine II.wav" WAVE
TRACK 02 AUDIO
TITLE "Machine II"
PERFORMER "XMF"
INDEX 01 00:00:00
TRACK 03 AUDIO
TITLE "Zombie Smile"
PERFORMER "3D/Guiz Ohm & Micropoint"
INDEX 00 05:17:70
FILE "03 - 3D,Guiz Ohm & Micropoint - Zombie Smile.wav" WAVE
INDEX 01 00:00:00
TRACK 04 AUDIO
TITLE "Forgotten moments"
PERFORMER "Lenny Dee"
INDEX 00 06:22:12
FILE "04 - Lenny Dee - Forgotten Moments.wav" WAVE
INDEX 01 00:00:00
TRACK 05 AUDIO
TITLE "X-Terror"
PERFORMER "Outlaw"
INDEX 00 06:06:15
FILE "05 - Outlaw - X-Terror.wav" WAVE
INDEX 01 00:00:00
TRACK 06 AUDIO
TITLE "Warped"
PERFORMER "Seige & Menace"
INDEX 00 06:30:65
FILE "06 - Seige & Menace - Warped.wav" WAVE
INDEX 01 00:00:00
TRACK 07 AUDIO
TITLE "Huntin' N Haunting"
PERFORMER "Carbon Based"
INDEX 00 04:32:37
FILE "07 - Carbon Based - Huntin' N Haunting.wav" WAVE
INDEX 01 00:00:00
TRACK 08 AUDIO
TITLE "2111"
PERFORMER "Ingler"
INDEX 00 06:07:55
FILE "08 - Ingler - 2111.wav" WAVE
INDEX 01 00:00:00
TRACK 09 AUDIO
TITLE "The Smoker"
PERFORMER "Atomic Compressor"
INDEX 00 05:34:60
FILE "09 - Atomic Compressor - The Smoker.wav" WAVE
INDEX 01 00:00:00
TRACK 10 AUDIO
TITLE "Mind ripper"
PERFORMER "Omar Santana"
INDEX 00 05:42:65
FILE "10 - Omar Santana - Mind ripper.wav" WAVE
INDEX 01 00:00:00
TRACK 11 AUDIO
TITLE "Silence Of Death"
PERFORMER "Micropoint"
INDEX 00 05:41:50
FILE "11 - Micropoint - Silence Of Death.wav" WAVE
INDEX 01 00:00:00
TRACK 12 AUDIO
TITLE "What"
PERFORMER "Card Jams"
INDEX 00 05:46:55
FILE "12 - Card Jams - What.wav" WAVE
INDEX 01 00:00:00
TRACK 13 AUDIO
TITLE "Styx (Outro)"
PERFORMER "DKP"
INDEX 00 05:36:43
FILE "13. DKP - Styx (Outro).wav" WAVE
INDEX 01 00:00:00


Display posts:    

Current time is: 21-Jan 21:58

All times are UTC ± 0


You cannot post new topics in this forum
You cannot reply to topics in this forum
You cannot edit your posts in this forum
You cannot delete your posts in this forum
You cannot vote in polls in this forum
You cannot attach files in this forum
You cannot download files in this forum

!ATTENTION!
The site does not give electronic versions of products, and is engaged only in a collecting and cataloguing of the references sent and published at a forum by our readers. If you are the legal owner of any submitted material and do not wish that the reference to it was in our catalogue, contact us and we shall immediately remove her. Files for an exchange on tracker are given by users of a site, and the administration does not bear the responsibility for their maintenance. The request to not fill in the files protected by copyrights, and also files of the illegal maintenance!