Где Анна Франк / Where Is Anne Frank (Ари Фольман) [2022, Бельгия, Люксембург, Франция, Нидерланды, Израиль, мультфильм, драма, семейный, история, WEB-DLRip] Dub (Позитив | iTunes) :: Российский Торрент трекер
Российский Торрент трекер
Яндекс.Погода
 

[Quote]
HUNTER

Где Анна Франк / Where Is Anne Frank- Страна: Бельгия, Люксембург, Франция, Нидерланды, Израиль
Жанр: мультфильм, драма, семейный, история
Год выпуска: 2022
Продолжительность: 01:35:44-Перевод: Профессиональный (дублированный) Позитив | iTunes
Субтитры: нет-Режиссер: Ари Фольман-В ролях: Эмили Кэри, Руби Стоукс, Себастьян Крофт, Майкл Мэлоуни, Скай Беннетт, Ари Фольман, Нелл Барлоу, Ральф Проссер-Описание: В знаменитом музее Анны Франк, где хранится дневник 13-летней школьницы, сумевшей подробно изложить историю своих переживаний в годы Второй мировой войны, происходит невероятное событие. Китти, воображаемая подруга, с которой Анна делилась своими записями, внезапно сходит со страниц дневника. Ей ничего не известно о судьбе Анны, и потому, захватив оригинальную рукопись, девочка отправляется на её поиски. Хотя незримое присутствие Анны Франк в современном Амстердаме ощущается повсеместно, найти реальную Анну Франк совсем непросто.
Сэмпл: http://multi-up.com/1293924
Качество видео: WEB-DLRip
Формат видео: AVI
Видео: 720x384 (1.85:1), 25 fps, XviD ~ 1795 Kbps avg, 0.260 bit/pixel
Аудио: AC3, 48 kHz, 6 ch, 384 kbps avg | iTunes

MediaInfo/

General
Complete name :Downloads\Where.Is.Anne.Frank.2022.D.WEB-DLRip.1.46Gb.MegaPeer.avi
Format : AVI
Format/Info : Audio Video Interleave
File size : 1.46 GiB
Duration : 1 h 35 min
Overall bit rate : 2 189 kb/s
Writing application : VirtualDubModRus 1.5.10.2 (build 2542/release)
Writing library : VirtualDubMod build 2542/release
Video #0
ID : 0
Format : MPEG-4 Visual
Format profile : Advanced [email protected]
Format settings : BVOP1 / Custom Matrix
Format settings, BVOP : 1
Format settings, QPel : No
Format settings, GMC : No warppoints
Format settings, Matrix : Custom
Codec ID : XVID
Codec ID/Hint : XviD
Duration : 1 h 35 min
Bit rate : 1 795 kb/s
Width : 720 pixels
Height : 384 pixels
Display aspect ratio : 1.85:1
Frame rate : 25.000 FPS
Color space : YUV
Chroma subsampling : 4:2:0
Bit depth : 8 bits
Scan type : Progressive
Compression mode : Lossy
Bits/(Pixel*Frame) : 0.260
Stream size : 1.20 GiB (82%)
Writing library : XviD 73
Audio #1
ID : 1
Format : AC-3
Format/Info : Audio Coding 3
Codec ID : 2000
Duration : 1 h 35 min
Bit rate mode : Constant
Bit rate : 384 kb/s
Channel(s) : 6 channels
Channel positions : Front: L C R, Side: L R, LFE
Sampling rate : 48.0 kHz
Frame rate : 31.250 FPS (1536 SPF)
Bit depth : 16 bits
Compression mode : Lossy
Stream size : 263 MiB (18%)
Alignment : Split accross interleaves
Interleave, duration : 40 ms (1.00 video frame)
Interleave, preload duration : 500 ms
Service kind : Complete Main

Скриншот c названием фильма

Скриншоты



Display posts:    

Current time is: 04-Jul 23:35

All times are UTC ± 0


You cannot post new topics in this forum
You cannot reply to topics in this forum
You cannot edit your posts in this forum
You cannot delete your posts in this forum
You cannot vote in polls in this forum
You cannot attach files in this forum
You cannot download files in this forum

!ATTENTION!
The site does not give electronic versions of products, and is engaged only in a collecting and cataloguing of the references sent and published at a forum by our readers. If you are the legal owner of any submitted material and do not wish that the reference to it was in our catalogue, contact us and we shall immediately remove her. Files for an exchange on tracker are given by users of a site, and the administration does not bear the responsibility for their maintenance. The request to not fill in the files protected by copyrights, and also files of the illegal maintenance!