Ивановский Торрент трекер
Яндекс.Погода
 

[Quote]
HUNTER

Февраль / February / The Blackcoat's Daughter
Страна: США, Канада
Жанр: ужасы, триллер
Год выпуска: 2015
Продолжительность: 01:34:27
Перевод: субтитры
Субтитры: русские (vles), английские
Оригинальная аудиодорожка: английский
Режиссер: Оз Перкинс / Oz Perkins
В ролях: Эмма Робертс, Кирнан Шипка, Люси Бойнтон, Лорен Холли, Джеймс Римар, Эмма Холцер, Питер Дж. Грэй, Тори Барбэн, Джоди Ларратт, Мэттью Стефиук и др.
Описание: Роуз и Кейт остались на зимние каникулы в католической школе-интернате. За обеими не приехали родители, но девушки, кажется, не очень-то и стремились увидеться с родственниками.
Сердобольный мужчина подбирает на автозаправке одинокую девушку Джоан, они с женой подвезут её до ближайшего населённого пункта. Джоан от кого-то бежит, и что-то из прошлого гнетёт девушку.
Сэмпл: http://sendfile.su/1395862
Тип релиза: BDRip 1080p
Контейнер: MKV
Видео: MPEG4 Video (H264), 1920x1080, 24fps, 8419kbps
Аудио: English: DTS, 48000Hz, 6ch, 1536kbps
Формат субтитров: softsub (SRT)

MediaInfo

Общее
Уникальный идентификатор : 219032871175113274246033552092428119205 (0xA4C83250742698C99FC4CC54D0FE2CA5)
Полное имя : D:\Downloads\#movies\the.blackcoats.daughter.2015.1080p.bluray.x264-rusted + rus.eng.sub.mkv
Формат : Matroska
Версия формата : Version 4 / Version 2
Размер файла : 6,55 Гбайт
Продолжительность : 1 ч. 34 м.
Общий поток : 9925 Кбит/сек
Дата кодирования : UTC 2018-02-01 18:02:48
Программа кодирования : mkvmerge v9.0.1 ('Obstacles') 64bit
Библиотека кодирования : libebml v1.3.3 + libmatroska v1.4.4
Видео
Идентификатор : 1
Формат : AVC
Формат/Информация : Advanced Video Codec
Профиль формата : [email protected]
Настройки формата : CABAC / 4 Ref Frames
Параметр CABAC формата : Да
Параметр RefFrames формата : 4 кадра
Идентификатор кодека : V_MPEG4/ISO/AVC
Продолжительность : 1 ч. 34 м.
Битрейт : 8419 Кбит/сек
Ширина : 1920 пикселей
Высота : 1080 пикселей
Соотношение сторон : 16:9
Режим частоты кадров : Постоянный
Частота кадров : 24,000 кадра/сек
Цветовое пространство : YUV
Субдискретизация насыщенности : 4:2:0
Битовая глубина : 8 бит
Тип развёртки : Прогрессивная
Бит/(Пиксели*Кадры) : 0.169
Размер потока : 5,55 Гбайт (85%)
Библиотека кодирования : x264 core 148 r2721 72d53ab
Настройки программы : cabac=1 / ref=4 / deblock=1:-1:-1 / analyse=0x3:0x133 / me=umh / subme=8 / psy=1 / psy_rd=1.00:0.15 / mixed_ref=1 / me_range=16 / chroma_me=1 / trellis=1 / 8x8dct=1 / cqm=0 / deadzone=21,11 / fast_pskip=0 / chroma_qp_offset=-4 / threads=12 / lookahead_threads=2 / sliced_threads=0 / nr=0 / decimate=1 / interlaced=0 / bluray_compat=0 / constrained_intra=0 / bframes=3 / b_pyramid=2 / b_adapt=2 / b_bias=0 / direct=3 / weightb=1 / open_gop=0 / weightp=2 / keyint=230 / keyint_min=22 / scenecut=40 / intra_refresh=0 / rc_lookahead=50 / rc=2pass / mbtree=1 / bitrate=8419 / ratetol=1.0 / qcomp=0.60 / qpmin=10 / qpmax=69 / qpstep=4 / cplxblur=20.0 / qblur=0.5 / ip_ratio=1.40 / aq=1:1.00
Язык : English
Default : Да
Forced : Нет
Аудио
Идентификатор : 2
Формат : DTS
Формат/Информация : Digital Theater Systems
Идентификатор кодека : A_DTS
Продолжительность : 1 ч. 34 м.
Вид битрейта : Постоянный
Битрейт : 1509 Кбит/сек
Каналы : 6 каналов
Расположение каналов : Front: L C R, Side: L R, LFE
Частота : 48,0 КГц
Частота кадров : 93,750 кадра/сек (512 SPF)
Битовая глубина : 24 бит
Метод сжатия : С потерями
Размер потока : 1019 Мбайт (15%)
Язык : English
Default : Да
Forced : Нет
Текст #1
Идентификатор : 3
Формат : UTF-8
Идентификатор кодека : S_TEXT/UTF8
Идентификатор кодека/Информация : UTF-8 Plain Text
Продолжительность : 1 ч. 28 м.
Битрейт : 36 бит/сек
ElementCount : 599
Размер потока : 23,6 Кбайт (0%)
Заголовок : Russian
Язык : Russian
Default : Да
Forced : Нет
Текст #2
Идентификатор : 4
Формат : UTF-8
Идентификатор кодека : S_TEXT/UTF8
Идентификатор кодека/Информация : UTF-8 Plain Text
Продолжительность : 1 ч. 28 м.
Битрейт : 21 бит/сек
ElementCount : 586
Размер потока : 14,1 Кбайт (0%)
Заголовок : English
Язык : English
Default : Нет
Forced : Нет
Меню
00:00:00.000 : en:00:00:00.000
00:05:02.583 : en:00:05:02.583
00:13:22.833 : en:00:13:22.833
00:23:04.583 : en:00:23:04.583
00:29:14.042 : en:00:29:14.042
00:41:26.458 : en:00:41:26.458
00:51:17.000 : en:00:51:17.000
00:59:26.958 : en:00:59:26.958
01:06:57.042 : en:01:06:57.042
01:15:42.417 : en:01:15:42.417
01:21:02.375 : en:01:21:02.375
01:27:53.375 : en:01:27:53.375

Скриншоты



Display posts:    

Current time is: 16-May 00:22

All times are UTC ± 0


You cannot post new topics in this forum
You cannot reply to topics in this forum
You cannot edit your posts in this forum
You cannot delete your posts in this forum
You cannot vote in polls in this forum
You cannot attach files in this forum
You cannot download files in this forum

!ATTENTION!
The site does not give electronic versions of products, and is engaged only in a collecting and cataloguing of the references sent and published at a forum by our readers. If you are the legal owner of any submitted material and do not wish that the reference to it was in our catalogue, contact us and we shall immediately remove her. Files for an exchange on tracker are given by users of a site, and the administration does not bear the responsibility for their maintenance. The request to not fill in the files protected by copyrights, and also files of the illegal maintenance!