Ивановский Торрент трекер
Яндекс.Погода
 

[Quote]
HUNTER

Джинджер / Ginger
Страна: США
Студия: Derio
Жанр: Боевик, драма, криминал
Год выпуска: 1971
Продолжительность: 01:40:26
Перевод: Одноголосый закадровый
Субтитры: нет
Оригинальная аудиодорожка: английский
Режиссер: Дон Шэйн / Don Schain
В ролях: Шери Каффаро, Дуан Такер, Херберт Керр, Кейси Донован, Дэвид Росс, Мишель Норрис, Синди Барнетт, Лизе Майер, Linda Susoeff, Уильям Греннел и др.
Описание: Полиция подозревает, что за недавним потоком похищений и исчезновений девушек стоит банда наркоманов и проституток, но пока им не удалось проникнуть в банду подозреваемых. Чтобы раскрыть это дело, они нанимают Джинджер, молодую женщину из семьи высшего света, чтобы она стала приманкой для похитителей и, как они надеются, привела полицию к их убежищу. Для полиции это может показаться надежным планом, но Джинджер-та, кто должен рискнуть всем.
IMDb (c)
Доп. информация: На трекере уже есть третья часть трилогии о Джинджер от Lucian666. Пришло время восполнить этот пробел. Сегодня первая часть.
Использованный софт: VobEdit, IfoEdit, VobBlanker, DvdReMake Pro. Региональной защиты нет.
Бонусы: Перечень работ Шери Кафарро, фотогалерея, реклама других DVD.
Меню: Простое озвученное меню
Сэмпл
Тип релиза: DVD5 (custom)
Контейнер: DVD-Video
Видео: MPEG-2, NTSC, 4:3 (720x480), VBR, 5700 Кбит/сек, 29,970 (30000/1001) кадров/сек
Аудио 1: Английский, 48.0 KHz, AC-3, 2 ch (Front: L, R), 192 Кбит/сек
Аудио 2: Русский, 48.0 KHz, AC-3, 2 ch (Front: L, R), 192 Кбит/сек

MediaInfo


Общее
Полное имя : C:\Users\marsh\Desktop\Ginger (1971)\VIDEO_TS\VTS_01_1.VOB
Формат : MPEG-PS
Размер файла : 1 024 Мбайт
Продолжительность : 23 м. 5 с.
Режим общего битрейта : Переменный
Общий поток : 6 199 Кбит/сек
Видео
Идентификатор : 224 (0xE0)
Формат : MPEG Video
Версия формата : Version 2
Профиль формата : [email protected]
Настройки формата : BVOP
Параметр BVOP формата : Да
Параметр матрицы формата : По умолчанию
Параметр GOP формата : M=3, N=13
Структура изображения : Frame
Продолжительность : 23 м. 5 с.
Вид битрейта : Переменный
Битрейт : 5 691 Кбит/сек
Максимальный битрейт : 7 500 Кбит/сек
Ширина : 720 пикселей
Высота : 480 пикселей
Соотношение сторон : 4:3
Частота кадров : 29,970 (30000/1001) кадров/сек
Стандарт вещания : NTSC
Цветовое пространство : YUV
Субдискретизация насыщенности : 4:2:0
Битовая глубина : 8 бит
Тип развёртки : Чересстрочная
Порядок развёртки : Верхнее поле первое
Метод сжатия : С потерями
Бит/(Пиксели*Кадры) : 0.549
Временной код первого кадра : 01:00:22;22
Оригинал временного кода : Group of pictures header
GOP, открыто/закрыто : Открыто
Размер потока : 940 Мбайт (92%)
Основные цвета : BT.601 NTSC
Характеристики трансфера : BT.601
Коэффициенты матрицы : BT.601
Аудио #1
Идентификатор : 189 (0xBD)-128 (0x80)
Формат : AC-3
Формат/Информация : Audio Coding 3
Коммерческое название : Dolby Digital
Режим смешивания : DVD-Video
Продолжительность : 23 м. 5 с.
Вид битрейта : Постоянный
Битрейт : 192 Кбит/сек
Каналы : 2 канала
Channel layout : L R
Частота : 48,0 КГц
Частота кадров : 31,250 кадров/сек (1536 SPF)
Метод сжатия : С потерями
Размер потока : 31,7 Мбайт (3%)
Service kind : Complete Main
Аудио #2
Идентификатор : 189 (0xBD)-129 (0x81)
Формат : AC-3
Формат/Информация : Audio Coding 3
Коммерческое название : Dolby Digital
Режим смешивания : DVD-Video
Продолжительность : 23 м. 5 с.
Вид битрейта : Постоянный
Битрейт : 192 Кбит/сек
Каналы : 2 канала
Channel layout : L R
Частота : 48,0 КГц
Частота кадров : 31,250 кадров/сек (1536 SPF)
Метод сжатия : С потерями
Размер потока : 31,7 Мбайт (3%)
Service kind : Complete Main
Меню

Скриншоты меню

Скриншоты доп. материалов



Display posts:    

Current time is: 14-May 08:12

All times are UTC ± 0


You cannot post new topics in this forum
You cannot reply to topics in this forum
You cannot edit your posts in this forum
You cannot delete your posts in this forum
You cannot vote in polls in this forum
You cannot attach files in this forum
You cannot download files in this forum

!ATTENTION!
The site does not give electronic versions of products, and is engaged only in a collecting and cataloguing of the references sent and published at a forum by our readers. If you are the legal owner of any submitted material and do not wish that the reference to it was in our catalogue, contact us and we shall immediately remove her. Files for an exchange on tracker are given by users of a site, and the administration does not bear the responsibility for their maintenance. The request to not fill in the files protected by copyrights, and also files of the illegal maintenance!