Джек Айриш: Безнадежные долги / Jack Irish: Bad Debts + Джек Айриш: Черный прилив / Jack Irish: Black Tide + Джек Айриш: Тупик / Jack Irish: Dead Point (Джеффри Уокер / Jeffrey Walker) [2012-2014, Австралия, драма, криминал, детектив, BDRip] MVO + Su :: Российский Торрент трекер
Российский Торрент трекер
Яндекс.Погода
 

[Quote]
HUNTER

-Джек Айриш / Jack Irish-- Год выпуска: 2012-2014
Страна: Австралия
Жанр: драма, криминал, детектив
Продолжительность: 01:43:57 + 01:37:42 + 01:26:53
Озвучание: профессиональное многоголосое закадровое (AlexFilm & Agatha Studdio)
Субтитры: русские (только для 3 части), английские-Режиссёр: Джеффри Уокер
В ролях: Гай Пирс, Марта Дюссельдорп, Аарон Педерсен, Рой Биллинг, Шэйн Джейкобсон, Дэмиен Ричардсон, Вадим Гловна, Колин Фрилз, Эмма Бут, Стив Бисли, Маршалл Напье, Риз Малдун, Тотти Голдсмит, Колин Хэй, Николас Белл, Дон Хани, Диана Гленн, Мартин Сакс, Бэрри Хамфриз...-Описание: Джек Айриш (Гай Пирс) - человек, пытающийся вновь собрать свою жизнь воедино. Бывший адвокат, чей мир взорвался после того, как его жену Изабель убил клиент, Джек попытался полностью раствориться в алкоголе. Впрочем, благодаря друзьям он не слишком преуспел в этой попытке. Он бросил заниматься уголовным правом и сейчас просто живет полноценной "мужской жизнью": спорт, выпивка, искусство, ставки, драки, редкая любовь...
Он работает на Гарри Странга, выбивая долги и помогая манипулировать ставками на скачках. Еще его можно найти в мебельной мастерской Чарли Тауба, где он обучается старинным методам работы с деревом. А его вторым домом стал паб Принц Пруссии - последняя цитадель футбольного клуба Фицрой, легендой которого был его отец. Он успешно избегает своего прошлого, до тех пор, пока прошлое не находит его само...
Сериал снят по романам Питера Темпла.-Релиз:
Перевод: vipere
Редактор перевода: Agatha (1 и 2), AF (3)
Роли озвучивали:
  • Владимир Курдов
  • Константин Погодаев
  • Семён Ващенко
  • Татьяна Манетина- -Качество: BDRip
    Формат: AVI
    Видео кодек: XviD
    Аудио кодек: AC3
    Видео: 720x400 (1.80:1), 23.976 fps, XviD ~1800 kbps avg, 0.26 bit/pixel
    Аудио Rus: 48 kHz, AC3 Dolby Digital, 2/0 (L,R) ch, ~192.00 kbps
    Аудио Eng: 48 kHz, AC3 Dolby Digital, 2/0 (L,R) ch, ~192.00 kbps-

    Список серий

    -1 - Безнадёжные долги (Bad Debts)-2 - Чёрный прилив (Black Tide)-3 - Мёртвый мыс (Dead Point)-

    Скриншоты

    MediaInfo

    1

    Format : AVI
    Format/Info : Audio Video Interleave
    File size : 1.60 GiB
    Duration : 1h 43mn
    Overall bit rate : 2 197 Kbps
    Movie name : Jack Irish: Bad Debts
    Writing application : VirtualDubMod 1.5.10.2 (build 2542/release)
    Video
    ID : 0
    Format : MPEG-4 Visual
    Format profile : Advanced [email protected]
    Format settings, BVOP : 1
    Format settings, QPel : No
    Format settings, GMC : No warppoints
    Format settings, Matrix : Default (MPEG)
    Codec ID : XVID
    Codec ID/Hint : XviD
    Duration : 1h 43mn
    Bit rate : 1 798 Kbps
    Width : 720 pixels
    Height : 400 pixels
    Display aspect ratio : 16:9
    Frame rate : 23.976 fps
    Color space : YUV
    Chroma subsampling : 4:2:0
    Bit depth : 8 bits
    Scan type : Progressive
    Compression mode : Lossy
    Bits/(Pixel*Frame) : 0.260
    Stream size : 1.31 GiB (82%)
    Writing library : XviD 1.2.1 (UTC 2008-12-04)
    Audio #1
    ID : 1
    Format : AC-3
    Format/Info : Audio Coding 3
    Mode extension : CM (complete main)
    Format settings, Endianness : Big
    Codec ID : 2000
    Duration : 1h 43mn
    Bit rate mode : Constant
    Bit rate : 192 Kbps
    Channel(s) : 2 channels
    Channel positions : Front: L R
    Sampling rate : 48.0 KHz
    Bit depth : 16 bits
    Compression mode : Lossy
    Stream size : 143 MiB (9%)
    Alignment : Split accross interleaves
    Interleave, duration : 42 ms (1.00 video frame)
    Interleave, preload duration : 500 ms
    Title : Russian
    Audio #2
    ID : 2
    Format : AC-3
    Format/Info : Audio Coding 3
    Mode extension : CM (complete main)
    Format settings, Endianness : Big
    Codec ID : 2000
    Duration : 1h 43mn
    Bit rate mode : Constant
    Bit rate : 192 Kbps
    Channel(s) : 2 channels
    Channel positions : Front: L R
    Sampling rate : 48.0 KHz
    Bit depth : 16 bits
    Compression mode : Lossy
    Stream size : 143 MiB (9%)
    Alignment : Split accross interleaves
    Interleave, duration : 42 ms (1.00 video frame)
    Interleave, preload duration : 500 ms
    Title : English

    2

    Format : AVI
    Format/Info : Audio Video Interleave
    File size : 1.50 GiB
    Duration : 1h 37mn
    Overall bit rate : 2 200 Kbps
    Movie name : Jack Irish: Black Tide
    Writing application : VirtualDubMod 1.5.10.2 (build 2542/release)
    Video
    ID : 0
    Format : MPEG-4 Visual
    Format profile : Advanced [email protected]
    Format settings, BVOP : 1
    Format settings, QPel : No
    Format settings, GMC : No warppoints
    Format settings, Matrix : Default (MPEG)
    Codec ID : XVID
    Codec ID/Hint : XviD
    Duration : 1h 37mn
    Bit rate : 1 802 Kbps
    Width : 720 pixels
    Height : 400 pixels
    Display aspect ratio : 16:9
    Frame rate : 23.976 fps
    Color space : YUV
    Chroma subsampling : 4:2:0
    Bit depth : 8 bits
    Scan type : Progressive
    Compression mode : Lossy
    Bits/(Pixel*Frame) : 0.261
    Stream size : 1.23 GiB (82%)
    Writing library : XviD 1.2.1 (UTC 2008-12-04)
    Audio #1
    ID : 1
    Format : AC-3
    Format/Info : Audio Coding 3
    Mode extension : CM (complete main)
    Format settings, Endianness : Big
    Codec ID : 2000
    Duration : 1h 37mn
    Bit rate mode : Constant
    Bit rate : 192 Kbps
    Channel(s) : 2 channels
    Channel positions : Front: L R
    Sampling rate : 48.0 KHz
    Bit depth : 16 bits
    Compression mode : Lossy
    Stream size : 134 MiB (9%)
    Alignment : Split accross interleaves
    Interleave, duration : 42 ms (1.00 video frame)
    Interleave, preload duration : 500 ms
    Title : Russian
    Audio #2
    ID : 2
    Format : AC-3
    Format/Info : Audio Coding 3
    Mode extension : CM (complete main)
    Format settings, Endianness : Big
    Codec ID : 2000
    Duration : 1h 37mn
    Bit rate mode : Constant
    Bit rate : 192 Kbps
    Channel(s) : 2 channels
    Channel positions : Front: L R
    Sampling rate : 48.0 KHz
    Bit depth : 16 bits
    Compression mode : Lossy
    Stream size : 134 MiB (9%)
    Alignment : Split accross interleaves
    Interleave, duration : 42 ms (1.00 video frame)
    Interleave, preload duration : 500 ms
    Title : English

    3

    Format : AVI
    Format/Info : Audio Video Interleave
    File size : 1.34 GiB
    Duration : 1h 26mn
    Overall bit rate : 2 201 Kbps
    Movie name : Jack Irish: Dead Point
    Writing application : VirtualDubMod 1.5.10.2 (build 2542/release)
    Writing library : VirtualDubMod build 2542/release
    Video
    ID : 0
    Format : MPEG-4 Visual
    Format profile : Advanced [email protected]
    Format settings, BVOP : 1
    Format settings, QPel : No
    Format settings, GMC : No warppoints
    Format settings, Matrix : Default (MPEG)
    Codec ID : XVID
    Codec ID/Hint : XviD
    Duration : 1h 26mn
    Bit rate : 1 802 Kbps
    Width : 720 pixels
    Height : 400 pixels
    Display aspect ratio : 16:9
    Frame rate : 23.976 fps
    Color space : YUV
    Chroma subsampling : 4:2:0
    Bit depth : 8 bits
    Scan type : Progressive
    Compression mode : Lossy
    Bits/(Pixel*Frame) : 0.261
    Stream size : 1.09 GiB (82%)
    Writing library : XviD 1.2.1 (UTC 2008-12-04)
    Audio #1
    ID : 1
    Format : AC-3
    Format/Info : Audio Coding 3
    Mode extension : CM (complete main)
    Format settings, Endianness : Big
    Codec ID : 2000
    Duration : 1h 26mn
    Bit rate mode : Constant
    Bit rate : 192 Kbps
    Channel(s) : 2 channels
    Channel positions : Front: L R
    Sampling rate : 48.0 KHz
    Bit depth : 16 bits
    Compression mode : Lossy
    Stream size : 119 MiB (9%)
    Alignment : Split accross interleaves
    Interleave, duration : 42 ms (1.00 video frame)
    Interleave, preload duration : 500 ms
    Title : Russian
    Audio #2
    ID : 2
    Format : AC-3
    Format/Info : Audio Coding 3
    Mode extension : CM (complete main)
    Format settings, Endianness : Big
    Codec ID : 2000
    Duration : 1h 26mn
    Bit rate mode : Constant
    Bit rate : 192 Kbps
    Channel(s) : 2 channels
    Channel positions : Front: L R
    Sampling rate : 48.0 KHz
    Bit depth : 16 bits
    Compression mode : Lossy
    Stream size : 119 MiB (9%)
    Alignment : Split accross interleaves
    Interleave, duration : 42 ms (1.00 video frame)
    Interleave, preload duration : 500 ms
    Title : English

    Как закачать отдельный файл из торрента или докачать ранее пропущенные файлы торрента!

    Как закачать отдельный файл из торрента или докачать ранее пропущенные файлы торрента!
    -Все раздачи сериала-


  • Quick Reply

    Name:

                   
           
         
    Heads necessary to send messages to enable JavaScript
    Display posts:    

    Current time is: 04-Jul 23:44

    All times are UTC ± 0


    You can post new topics in this forum
    You can reply to topics in this forum
    You cannot edit your posts in this forum
    You cannot delete your posts in this forum
    You cannot vote in polls in this forum
    You cannot attach files in this forum
    You cannot download files in this forum

    !ATTENTION!
    The site does not give electronic versions of products, and is engaged only in a collecting and cataloguing of the references sent and published at a forum by our readers. If you are the legal owner of any submitted material and do not wish that the reference to it was in our catalogue, contact us and we shall immediately remove her. Files for an exchange on tracker are given by users of a site, and the administration does not bear the responsibility for their maintenance. The request to not fill in the files protected by copyrights, and also files of the illegal maintenance!