Ивановский Торрент трекер
Яндекс.Погода
 

[Quote]
HUNTER

Чудо-юдо- Год выхода: 2018
Выпущено: Россия / Фонд Кино
Жанр: мультфильм, фэнтези
Продолжительность: 01:14:55
Перевод: Не требуется
Субтитры: нет-Режиссер:
Артем Лукичев-В ролях:
Антон Макарский, Ирина Медведева, Наталия Медведева, Александр Пожаров, Людмила Артемьева, Федор Добронравов, Иван Добронравов, Диомид Виноградов-О фильме:
В некотором царстве, в некотором государстве жил-был Царь Еремей с тремя сыновьями. Был он занят целыми днями важнейшим государственным делом — диктовал мемуары о своих несуществующих подвигах. И вот однажды, средь бела дня обнаружилось на границе Царства чудище драконьей породы, а проще говоря, Чудо-Юдо. И послал Царь сыновей чудище это победить и славу царского рода приумножить. Но пока старшие сыновья спали, а Иван с Чудом-Юдом сражался, выяснилось, что пропала Царевна Варвара из Соседнего Царства. И отправился Иван на её поиски. Ну и Чудо-Юдо с собой прихватил. На всякий случай. Вдруг в дороге пригодится! Не знал только Иван, что Дракон этот — совсем не тот, за кого себя выдаёт.-Релиз групп | | КиноПоиск | Сэмпл |-Качество: WEB-DLRip [WEB-DL | 1080p]
Формат: AVI
Видео: 704x384 (1.83:1), 24.000 fps, XviD build 67 ~2219 kbps avg, 0.34 bit/pixel
Аудио: 48 kHz, AC3 Dolby Digital, 3/2 (L,C,R,l,r) + LFE ch, ~384 kbps avg - iTunes Russia-

Скриншоты

-

MediaInfo

Код:Общее
Полное имя : D:\4udo-Udo_2018_WEB-DLRip_iT_by_Dalemake.avi
Формат : AVI
Формат/Информация : Audio Video Interleave
Размер файла : 1,37 Гбайт
Продолжительность : 1 ч. 14 м.
Общий поток : 2613 Кбит/сек
Программа кодирования : VirtualDubMod 1.5.10.3 | www.virtualdub-fr.org || (build 2550/release)
Библиотека кодирования : VirtualDubMod build 2550/release
Видео
Идентификатор : 0
Формат : MPEG-4 Visual
Профиль формата : Advanced [email protected]
Параметр BVOP формата : 2
Параметр QPel формата : Нет
Параметр GMC формата : Без точки перехода
Параметр матрицы формата : Выборочная
Идентификатор кодека : XVID
Идентификатор кодека/Подсказка : XviD
Продолжительность : 1 ч. 14 м.
Битрейт : 2220 Кбит/сек
Ширина : 704 пикселя
Высота : 384 пикселя
Соотношение сторон : 1,85:1
Частота кадров : 24,000 кадра/сек
Цветовое пространство : YUV
Субдискретизация насыщенности : 4:2:0
Битовая глубина : 8 бит
Тип развёртки : Прогрессивная
Метод сжатия : С потерями
Бит/(Пиксели*Кадры) : 0.342
Размер потока : 1,16 Гбайт (85%)
Библиотека кодирования : XviD 67
Аудио
Идентификатор : 1
Формат : AC-3
Формат/Информация : Audio Coding 3
Расширение режима : CM (complete main)
Параметр Endianness формата : Big
Идентификатор кодека : 2000
Продолжительность : 1 ч. 14 м.
Вид битрейта : Постоянный
Битрейт : 384 Кбит/сек
Каналы : 6 каналов
Расположение каналов : Front: L C R, Side: L R, LFE
Частота : 48,0 КГц
Битовая глубина : 16 бит
Метод сжатия : С потерями
Размер потока : 206 Мбайт (15%)
Выравнивание : Разделение по промежуткам
Продолжительность промежутка : 42 мс. (1,00 видеокадр)
Время предзагрузки промежутка : 500 мс.
-


Display posts:    

Current time is: 13-May 05:52

All times are UTC ± 0


You cannot post new topics in this forum
You cannot reply to topics in this forum
You cannot edit your posts in this forum
You cannot delete your posts in this forum
You cannot vote in polls in this forum
You cannot attach files in this forum
You cannot download files in this forum

!ATTENTION!
The site does not give electronic versions of products, and is engaged only in a collecting and cataloguing of the references sent and published at a forum by our readers. If you are the legal owner of any submitted material and do not wish that the reference to it was in our catalogue, contact us and we shall immediately remove her. Files for an exchange on tracker are given by users of a site, and the administration does not bear the responsibility for their maintenance. The request to not fill in the files protected by copyrights, and also files of the illegal maintenance!