Ивановский Торрент трекер
Яндекс.Погода
 

[Quote]
HUNTER

Частота Кирлиана / The Kirlian Frequency
Страна: Аргентина
Жанр: Ужасы
Продолжительность серии: 1 x ~9 мин.
Год выпуска: 2017
Перевод: Любительский (двухголосый закадровый) NewStation
Русские субтитры: нет
Режиссёр: Кристиан Понсе / Cristian Ponce
Роли озвучивали: Мария Дуплаа, Джордже Луис Алонсо
Описание: Действие происходит в городе Кирлиан, в провинции Буэнас Айрес. Местоположение города известно лишь местным жителям. Если вы всё же попали в город, не выходите ночью на улицу, и не смейте никому о нём рассказывать. Вас выследят, и позаботится о том, чтобы вы молчали.
Семпл: http://multi-up.com/1228719
Предыдущие и альтернативные раздачи
Качество: WEBRip 1080p
Формат: MKV
Видео: AVC, 1920x1080 (16:9), ~2050 Kbps, 25,000 fps,
Аудио 1: [RUS] 48 kHz, AC-3, 2ch, 256 kbps
Аудио 2: [ENG] 48 kHz, E-AC-3, 2ch, 128 kbps
Субтитры: Английские

Подробные технические данные

Общее
Уникальный идентификатор : 296729341576697469418431421684977635888 (0xDF3BFE10077D320E4C5BF39B5EE61230)
Полное имя : F:\NewStation\The.Kirlian.Frequency.S01.WEBRip.1080p.NewStation\The.Kirlian.Frequency.S01E01.WEBRip.1080p.NewStation.mkv
Формат : Matroska
Версия формата : Version 4 / Version 2
Размер файла : 158 Мбайт
Продолжительность : 9 м. 6 с.
Режим общего битрейта : Переменный
Общий поток : 2421 Кбит/сек
Дата кодирования : UTC 2019-03-19 19:22:54
Программа кодирования : mkvmerge v28.1.0 ('Morning Child') 64-bit
Библиотека кодирования : libebml v1.3.6 + libmatroska v1.4.9
Видео
Идентификатор : 1
Формат : AVC
Формат/Информация : Advanced Video Codec
Профиль формата : [email protected]
Настройки формата : CABAC / 3 Ref Frames
Параметр CABAC формата : Да
Параметр RefFrames формата : 3 кадра
Идентификатор кодека : V_MPEG4/ISO/AVC
Продолжительность : 9 м. 6 с.
Вид битрейта : Переменный
Битрейт : 2050 Кбит/сек
Максимальный битрейт : 3075 Кбит/сек
Ширина : 1920 пикселей
Высота : 1080 пикселей
Соотношение сторон : 16:9
Режим частоты кадров : Постоянный
Частота кадров : 25,000 кадров/сек
Цветовое пространство : YUV
Субдискретизация насыщенности : 4:2:0
Битовая глубина : 8 бит
Тип развёртки : Прогрессивная
Бит/(Пиксели*Кадры) : 0.040
Размер потока : 132 Мбайт (84%)
Библиотека кодирования : x264 core 148 r2715 7e75228
Настройки программы : cabac=1 / ref=3 / deblock=1:0:0 / analyse=0x1:0x111 / me=umh / subme=10 / psy=1 / psy_rd=1.00:0.00 / mixed_ref=1 / me_range=24 / chroma_me=1 / trellis=2 / 8x8dct=0 / cqm=0 / deadzone=21,11 / fast_pskip=1 / chroma_qp_offset=-2 / threads=8 / lookahead_threads=1 / sliced_threads=0 / nr=0 / decimate=1 / interlaced=0 / bluray_compat=0 / stitchable=1 / constrained_intra=0 / bframes=2 / b_pyramid=0 / b_adapt=2 / b_bias=0 / direct=3 / weightb=1 / open_gop=0 / weightp=2 / keyint=50 / keyint_min=26 / scenecut=0 / intra_refresh=0 / rc_lookahead=50 / rc=2pass / mbtree=1 / bitrate=2050 / ratetol=1.0 / qcomp=0.50 / qpmin=6 / qpmax=51 / qpstep=4 / cplxblur=20.0 / qblur=0.5 / vbv_maxrate=3075 / vbv_bufsize=4100 / nal_hrd=vbr / filler=0 / ip_ratio=1.40 / aq=1:1.00
Default : Да
Forced : Нет
Аудио #1
Идентификатор : 2
Формат : AC-3
Формат/Информация : Audio Coding 3
Идентификатор кодека : A_AC3
Продолжительность : 9 м. 6 с.
Вид битрейта : Постоянный
Битрейт : 256 Кбит/сек
Каналы : 2 канала
Расположение каналов : Front: L R
Частота : 48,0 КГц
Частота кадров : 31,250 кадров/сек (1536 SPF)
Битовая глубина : 16 бит
Метод сжатия : С потерями
Размер потока : 16,7 Мбайт (11%)
Заголовок : NewStation
Язык : Russian
ServiceKind/String : Complete Main
Default : Да
Forced : Нет
Аудио #2
Идентификатор : 3
Формат : E-AC-3
Формат/Информация : Enhanced Audio Coding 3
Идентификатор кодека : A_EAC3
Продолжительность : 9 м. 6 с.
Вид битрейта : Постоянный
Битрейт : 128 Кбит/сек
Каналы : 2 канала
Расположение каналов : Front: L R
Частота : 48,0 КГц
Частота кадров : 187,500 кадров/сек (256 SPF)
Метод сжатия : С потерями
Размер потока : 8,33 Мбайт (5%)
Заголовок : English
ServiceKind/String : Complete Main
Default : Нет
Forced : Нет
Текст
Идентификатор : 4
Формат : UTF-8
Идентификатор кодека : S_TEXT/UTF8
Идентификатор кодека/Информация : UTF-8 Plain Text
Продолжительность : 8 м. 18 с.
Битрейт : 83 бит/сек
ElementCount : 107
Размер потока : 5,06 Кбайт (0%)
Заголовок : English
Язык : English
Default : Нет
Forced : Нет

Скриншоты



Display posts:    

Current time is: 26-Feb 03:42

All times are UTC ± 0


You cannot post new topics in this forum
You cannot reply to topics in this forum
You cannot edit your posts in this forum
You cannot delete your posts in this forum
You cannot vote in polls in this forum
You cannot attach files in this forum
You cannot download files in this forum

!ATTENTION!
The site does not give electronic versions of products, and is engaged only in a collecting and cataloguing of the references sent and published at a forum by our readers. If you are the legal owner of any submitted material and do not wish that the reference to it was in our catalogue, contact us and we shall immediately remove her. Files for an exchange on tracker are given by users of a site, and the administration does not bear the responsibility for their maintenance. The request to not fill in the files protected by copyrights, and also files of the illegal maintenance!