Ивановский Торрент трекер
Яндекс.Погода
 

[Quote]
HUNTER

Бродвейская мелодия 1929-го года / The Broadway Melody
Страна: США
Студия: Metro-Goldwyn-Mayer (MGM)
Жанр: мюзикл, мелодрама
Год выпуска: 1929
Продолжительность: 01:40:18
Перевод: Профессиональный (многоголосый закадровый) Светла
Субтитры: английские (Full, SDH)
Оригинальная аудиодорожка: английский
Режиссер: Гарри Бомонт / Harry Beaumont
В ролях: Чарльз Кинг, Анита Пейдж, Бесси Лав, The Angeles Twins, Betty Arthur, Дж. Эмметт Бек, Насио Херб Браун, Джеймс Берроуз, Эдди Буш, Рэй Кук и др.
Описание: Сестры Хэнк (Бесси Лав) и Куини Махони (Анита Пэйдж) - танцующие певицы, приезжают в Нью-Йорк на Бродвей, где их друг Эдди Кернс (Чарльз Кинг) выступает в роли протеже постановки их нового номера для варьете Фрэнсиса Занфилда (Эдди Кэйн). Эдди и Хэнк давно знакомы и даже хотят обвенчаться, но когда молодой человек увидел Куини, он влюбляется в неё без ума и, изменив свои планы в отношении будущего брака, начинает ухаживать за белокурой сестричкой. Тем временем Джок Уорринер (Кеннет Томсон) богач и представитель высшего общества Нью-Йорка, положив глаз на Куини, дарит ей бриллиантовый браслет и требует повиновения и любви, но только спустя несколько недель девушка поймет, что стала игрушкой в руках хладнокровного джентльмена…
Один из первых звуковых музыкальных фильмов США, прекрасная попытка еще довольно примитивными техническими средствами кино показать максимально искренне и красиво жизнь Бродвея в преддверие великой депрессии. Газета «Нью-Йорк таймс» писала после премьеры, - «пульсирующая драма обнаженного сердца Бродвея говорит и поет во весь голос, чтобы размешать вашу душу!». Бесси Лав исполнившая в фильме роль неунывающей Хэнк была номинирована на премию «Оскар» за лучшую женскую роль, а сама картина получила заслуженный «Оскар» - как лучший фильм.
-
Сэмпл IMDB Кинопоиск
-
Доп. информация:
За русскую дорогу спасибо palmeiras
Тип релиза: WEB-DL 1080p (The.Broadway.Melody.1929.1080p.WEB-DL.DDP2.0.H.264-SbR)
Контейнер: MKV
Видео: AVC / 1440x1080 / 1.37:1 / 23.976 fps / 14800 Kbps / [email protected]
Аудио 1 Rus: AC3 / 48.0 KHz / 2.0 / 192 kbps / MVO / Светла
Аудио 2 Eng: E-AC3 / 48.0 KHz / 2.0 / 224 kbps
Формат субтитров: softsub (SRT)

MediaInfo

General
Unique ID : 36431614503492943205635113156601086177 (0x1B687946558F0F597C64DE11E9D680E1)
Complete name : G:\porvaliparus 2021\The.Broadway.Melody.1929.WEB-DL.1080p.mkv
Format : Matroska
Format version : Version 4 / Version 2
File size : 10.7 GiB
Duration : 1 h 40 min
Overall bit rate mode : Variable
Overall bit rate : 15.3 Mb/s
Movie name : The.Broadway.Melody.1929.WEB-DL.1080p-porvaliparus
Encoded date : UTC 2021-03-08 00:56:06
Writing application : mkvmerge v54.0.0 ('F Maj Pixie') 64-bit
Writing library : libebml v1.4.2 + libmatroska v1.6.3
Cover : Yes
Attachments : cover.jpg
Video
ID : 1
Format : AVC
Format/Info : Advanced Video Codec
Format profile : [email protected]
Format settings, CABAC : Yes
Format settings, ReFrames : 4 frames
Codec ID : V_MPEG4/ISO/AVC
Duration : 1 h 40 min
Bit rate mode : Variable
Bit rate : 14.8 Mb/s
Maximum bit rate : 15.0 Mb/s
Width : 1 440 pixels
Height : 1 080 pixels
Display aspect ratio : 1.370
Original display aspect ratio : 4:3
Frame rate mode : Constant
Frame rate : 23.976 (24000/1001) FPS
Color space : YUV
Chroma subsampling : 4:2:0
Bit depth : 8 bits
Scan type : Progressive
Bits/(Pixel*Frame) : 0.398
Stream size : 10.4 GiB (97%)
Title : The.Broadway.Melody.1929.WEB-DL.1080p
Writing library : x264 core 148 r2623 d5b2374
Encoding settings : cabac=1 / ref=4 / deblock=1:-1:-1 / analyse=0x3:0x133 / me=umh / subme=9 / psy=1 / psy_rd=1.00:0.15 / mixed_ref=1 / me_range=24 / chroma_me=1 / trellis=2 / 8x8dct=1 / cqm=0 / deadzone=21,11 / fast_pskip=1 / chroma_qp_offset=-3 / threads=34 / lookahead_threads=5 / sliced_threads=0 / nr=150 / decimate=1 / interlaced=0 / bluray_compat=0 / constrained_intra=0 / bframes=8 / b_pyramid=2 / b_adapt=2 / b_bias=0 / direct=3 / weightb=1 / open_gop=0 / weightp=2 / keyint=120 / keyint_min=61 / scenecut=0 / intra_refresh=0 / rc_lookahead=120 / rc=crf / mbtree=1 / crf=18.0 / qcomp=0.60 / qpmin=0 / qpmax=69 / qpstep=4 / vbv_maxrate=15000 / vbv_bufsize=31250 / crf_max=0.0 / nal_hrd=vbr / filler=0 / ip_ratio=1.40 / aq=3:1.00
Default : Yes
Forced : No
Color range : Limited
Color primaries : BT.709
Transfer characteristics : BT.709
Matrix coefficients : BT.709
Audio #1
ID : 2
Format : AC-3
Format/Info : Audio Coding 3
Format settings, Endianness : Big
Codec ID : A_AC3
Duration : 1 h 40 min
Bit rate mode : Constant
Bit rate : 192 kb/s
Channel(s) : 2 channels
Channel positions : Front: L R
Sampling rate : 48.0 kHz
Frame rate : 31.250 FPS (1536 spf)
Bit depth : 16 bits
Compression mode : Lossy
Stream size : 138 MiB (1%)
Title : MVO [Светла]
Language : Russian
Service kind : Complete Main
Default : Yes
Forced : No
Audio #2
ID : 3
Format : E-AC-3
Format/Info : Enhanced Audio Coding 3
Format settings, Endianness : Big
Codec ID : A_EAC3
Duration : 1 h 40 min
Bit rate mode : Constant
Bit rate : 224 kb/s
Channel(s) : 2 channels
Channel positions : Front: L R
Sampling rate : 48.0 kHz
Frame rate : 187.500 FPS (256 spf)
Compression mode : Lossy
Stream size : 161 MiB (1%)
Language : English
Service kind : Complete Main
Default : No
Forced : No
Text #1
ID : 4
Format : UTF-8
Codec ID : S_TEXT/UTF8
Codec ID/Info : UTF-8 Plain Text
Duration : 1 h 38 min
Bit rate : 65 b/s
Count of elements : 1152
Stream size : 47.6 KiB (0%)
Title : Full
Language : English
Default : No
Forced : No
Text #2
ID : 5
Format : UTF-8
Codec ID : S_TEXT/UTF8
Codec ID/Info : UTF-8 Plain Text
Duration : 1 h 39 min
Bit rate : 78 b/s
Count of elements : 2178
Stream size : 57.4 KiB (0%)
Title : SDH
Language : English
Default : No
Forced : No
Text #3
ID : 6
Format : ASS
Codec ID : S_TEXT/ASS
Codec ID/Info : Advanced Sub Station Alpha
Duration : 1 h 39 min
Bit rate : 201 b/s
Count of elements : 2189
Compression mode : Lossless
Stream size : 147 KiB (0%)
Title : SDH
Language : English
Default : No
Forced : No
Menu
00:00:00.000 : en:01. Credits
00:01:00.060 : en:02. The Broadway Melody (I)
00:05:14.147 : en:03. Queenie and Hank
00:08:52.240 : en:04. Uncle Jed's Offer
00:13:05.159 : en:05. The Broadway Melody (II)
00:17:59.245 : en:06. Audition Sabotage
00:23:18.564 : en:07. A Sister Team
00:28:35.964 : en:08. Backstage Nerves
00:34:36.324 : en:09. The Broadway Melody (III)
00:39:09.347 : en:10. Love Boat
00:42:49.859 : en:11. Raves for Queenie
00:45:54.126 : en:12. It's Not a Date
00:49:47.318 : en:13. Giving Girls a Ring
00:54:24.678 : en:14. You Were Meant for Me
00:58:16.618 : en:15. No Mood to Party
01:02:47.973 : en:16. Truthful Parson Brown
01:05:46.776 : en:17. Birthday Bracelet
01:09:05.099 : en:18. What Queenie Wants
01:12:49.657 : en:19. The Wedding of the Painted Doll
01:16:31.712 : en:20. The Boy Friend
01:18:25.993 : en:21. Lovers' Quarrel
01:22:39.288 : en:22. Fighting for Queenie
01:27:14.312 : en:23. Offer Taken
01:28:51.701 : en:24. Queenie's Choice
01:33:14.714 : en:25. Born Troupers
01:36:15.728 : en:26. Harmony Babies Hit the Road
01:39:19.495 : en:27. Cream in the Can

Скриншоты




Display posts:    

Current time is: 14-May 08:15

All times are UTC ± 0


You cannot post new topics in this forum
You cannot reply to topics in this forum
You cannot edit your posts in this forum
You cannot delete your posts in this forum
You cannot vote in polls in this forum
You cannot attach files in this forum
You cannot download files in this forum

!ATTENTION!
The site does not give electronic versions of products, and is engaged only in a collecting and cataloguing of the references sent and published at a forum by our readers. If you are the legal owner of any submitted material and do not wish that the reference to it was in our catalogue, contact us and we shall immediately remove her. Files for an exchange on tracker are given by users of a site, and the administration does not bear the responsibility for their maintenance. The request to not fill in the files protected by copyrights, and also files of the illegal maintenance!