Ивановский Торрент трекер
Яндекс.Погода
 

[Quote]
HUNTER

[box]7 дней на раздаче![/box]Двадцать пятое - первый день Год выпуска: 1968
Страна: СССР
Киностудия:
Жанр: мультфильм, короткометражка
Продолжительность: 00:08:56
Перевод: не требуется
субтитры: отсутствуют-Режиссёр: Юрий Норштейн, Аркадий Тюрин-Описание: Фильм-плакат к 60-летию Октябрьской революции.- релиз: -Качество: WEB-DL 1080p
Формат: MKV
Видео кодек: AVC
Аудио кодек: AAC
Видео: 1536x1080, 25 fps, ~4999 kbps, 0.121 bit/pixel
Аудио: 44.1 kHz, AAC, 2 ch, 128 kbps

MediaInfo

Общее
Уникальный идентификатор : 261560448499862835861652283008104681807 (0xC4C6B5C2C721306C8C16508C144E514F)
Полное имя : D:\Союзмультфильм\Двадцать пятое - первый день.1968.WEB-DL 1080p.mkv
Формат : Matroska
Версия формата : Version 4 / Version 2
Размер файла : 328 Мбайт
Продолжительность : 8 м. 57 с.
Общий поток : 5126 Кбит/сек
Дата кодирования : UTC 2021-01-13 06:52:24
Программа кодирования : mkvmerge v52.0.0 ('Secret For The Mad') 64-bit
Библиотека кодирования : libebml v1.4.1 + libmatroska v1.6.2
Видео
Идентификатор : 1
Формат : AVC
Формат/Информация : Advanced Video Codec
Профиль формата : [email protected]
Настройки формата : CABAC / 1 Ref Frames
Параметр CABAC формата : Да
Параметр RefFrames формата : 1 кадр
Идентификатор кодека : V_MPEG4/ISO/AVC
Продолжительность : 8 м. 56 с.
Битрейт : 4999 Кбит/сек
Ширина : 1536 пикселей
Высота : 1080 пикселей
Соотношение сторон : 1,422
Режим частоты кадров : Постоянный
Частота кадров : 25,000 кадров/сек
Цветовое пространство : YUV
Субдискретизация насыщенности : 4:2:0
Битовая глубина : 8 бит
Тип развёртки : Прогрессивная
Бит/(Пиксели*Кадры) : 0.121
Размер потока : 320 Мбайт (97%)
Язык : Russian
Default : Да
Forced : Нет
Аудио
Идентификатор : 2
Формат : AAC
Формат/Информация : Advanced Audio Codec
Профиль формата : LC
Идентификатор кодека : A_AAC-2
Продолжительность : 8 м. 57 с.
Битрейт : 128 Кбит/сек
Каналы : 2 канала
Расположение каналов : Front: L R
Частота : 44,1 КГц
Частота кадров : 43,066 кадра/сек (1024 SPF)
Метод сжатия : С потерями
Размер потока : 8,20 Мбайт (2%)
Заголовок : ru
Язык : Russian
Default : Да
Forced : Нет


Display posts:    

Current time is: 20-Jan 00:41

All times are UTC ± 0


You cannot post new topics in this forum
You cannot reply to topics in this forum
You cannot edit your posts in this forum
You cannot delete your posts in this forum
You cannot vote in polls in this forum
You cannot attach files in this forum
You cannot download files in this forum

!ATTENTION!
The site does not give electronic versions of products, and is engaged only in a collecting and cataloguing of the references sent and published at a forum by our readers. If you are the legal owner of any submitted material and do not wish that the reference to it was in our catalogue, contact us and we shall immediately remove her. Files for an exchange on tracker are given by users of a site, and the administration does not bear the responsibility for their maintenance. The request to not fill in the files protected by copyrights, and also files of the illegal maintenance!