Introduction to Marvelous Designer
Производитель: CGMA 3D
Сайт производителя: https://3d.cgmasteracademy.com/
Автор: John Gotch
Продолжительность: 7 ч.
Тип раздаваемого материала: Видеоурок
Язык: Английский
Описание: В этом обучающем курсе, посвященном Marvelous Designer, мы подробно разберем большинство инструментов и различные техники, используемые при создании одежды для производства игр. Начнем мы с основного интерфейса программы и создания простых объектов из ткани, после чего перейдем к полноценной одежде для мужских и женских аватаров. Также вы увидите, как экспортировать созданные модели и дорабатывать их в Zbrush и Maya. И наконец, мы продемонстрируем, как создаются различные складки на одежде, как ткань драпируется при помощи добавления анимации в Marvelous Designer.
This introductory course for Marvelous Designer will go into detail about most of the tools and different techniques used to create clothing for game development. This course will start with going over the basic user interface, creating some simple fabric objects, and then transitioning into full clothing for male and female avatars. The course will also demonstrate how to export and clean the models inside of Zbrush and Maya. Finally, you’ll get a quick overview for creating different clothing folds from adding animation inside of Marvelous Designer.

Содержание

Неделя 1:
Введение, интерфейс, импорт/экспорт, создание простого меша. Простые объекты из ткани (скатерть и разные виды подушек).
Неделя 2:
Разбор инструментов и функций программы. Создание сумки, шарфа и балаклавы.
Неделя 3:
Создание блузы и платья/юбки с корсетом. Понятие ограничивающего объема вокруг персонажа.
Неделя 4:
Создание брюк с ремнями, наколенниками и пр. Создание сорочки с карманом и ремнями.
Неделя 5:
Импорт в Zbrush (преобразование в квады и сохранение плотности меша). Импорт в MD с анимацией и работа над складками.
Формат видео: MP4
Видео:

скрытый текст

Video
Идентификатор : 2
Формат : AVC
Формат/Информация : Advanced Video Codec
Профиль формата : [email protected]
Настройки формата : CABAC / 11 Ref Frames
Параметр CABAC формата : Yes
Параметр RefFrames формата : 11 frames
Режим смешивания : Container [email protected]
Идентификатор кодека : avc1
Идентификатор кодека/Информация : Advanced Video Coding
Продолжительность : 59 min 48 s
Битрейт : 269 kb/s
Ширина : 2 560 pixels
Высота : 1 440 pixels
Соотношение сторон : 16:9
Режим частоты кадров : Constant
Частота кадров : 25.000 FPS
Цветовое пространство : YUV
Субдискретизация насыщенности : 4:2:0
Битовая глубина : 8 bits
Тип развёртки : Progressive
Бит/(Пиксели*Кадры) : 0.003
Размер потока : 115 MiB (83%)
Заголовок : H.264/AVC video
Дата кодирования : UTC 2019-08-01 04:21:11
Дата пометки : UTC 2019-08-01 04:21:11
Codec configuration box : avcC
Аудио:

скрытый текст

Audio
Идентификатор : 1
Формат : AAC LC
Формат/Информация : Advanced Audio Codec Low Complexity
Идентификатор кодека : mp4a-40-2
Продолжительность : 59 min 48 s
Вид битрейта : Variable
Битрейт : 53.4 kb/s
Максимальный битрейт : 128 kb/s
Каналы : 1 channel
Channel layout : C
Частота : 32.0 kHz
Частота кадров : 31.250 FPS (1024 SPF)
Метод сжатия : Lossy
Размер потока : 22.8 MiB (16%)
Заголовок : AAC audio
Дата кодирования : UTC 2019-08-01 04:21:11
Дата пометки : UTC 2019-08-01 04:21:11
Menus : 3

Скриншот