Ивановский Торрент трекер
Яндекс.Погода
 

[Quote]
Ogastin

Информация о фильме
Название: Вперёд
Оригинальное название: Onward
Год выхода: 2020
Жанр: Мультфильм, фэнтези, комедия, приключения, семейный, полнометражный
Режиссер: Дэн Скэнлон
В ролях: Том Холланд (II), Крис Прэтт, Джулия Луис-Дрейфус, Джон Ратценбергер, Октавия Спенсер, Мэл Родригес, Лина Уэйте, Али Вонг, Грей ДеЛайл, Трейси Ульман

О фильме: Когда-то давно в сказочном мире царила магия, но после открытия электричества маги стали не нужны, и развитие пошло по техногенному пути. Теперь эльфы, тролли, гоблины, мантикоры, феи, кентавры и единороги летают на самолетах, пользуются автомобилями и мобильниками и ведут в целом прозаичную жизнь. Братья-эльфы Иэн и Барли Лайтфуты воспитывались одной мамой, потому что их отец умер, когда они были ещё совсем маленькими. На 16-летие Иэну достаётся посох отца, и магическое заклинание, которое должно вернуть того к жизни на один день, но волшебный кристалл исчезает, воскресив только нижнюю половину папы. Барли, большой любитель квестов, невероятно рад — прихватив полупапу, братья отправляются в приключение на поиски другого кристалла.
Страна: США
Студия: Walt Disney Pictures, Pixar Animation Studios
Продолжительность: 01:42:21
Перевод: Дублированный | iTunes
Качество: BDRemux 2160p
Видео: 3840x2160 at 23.976 fps, MPEG-H HEVC HDR Video, 40300 kbps avg
Аудио #01: 48 kHz, AC3, 5.1, 384 Kbps | iTunes | RUS |
Аудио #02: 48 kHz, TrueHD, 7.1, 7021 Kbps | Оригинал | ENG |
Аудио #03: 48 kHz, AC3, 5.1, 640 Kbps | Оригинал | ENG |
Субтитры: Русские (Full), английские

MI

General
Unique ID : 301189572350400642465713756471353726615 (0xE297006AFFDCD9CC38F6C66FBD10D697)
Complete name : E:Video111Onward.2020.BDREMUX.2160p.HDR.seleZen.mkv
Format : Matroska
Format version : Version 4
File size : 34.6 GiB
Duration : 1 h 42 min
Overall bit rate mode : Variable
Overall bit rate : 48.4 Mb/s
Movie name : Onward 2020 from селезень
Encoded date : UTC 2020-05-14 03:56:08
Writing application : mkvmerge v40.0.0 ('Old Town Road + Pony') 64-bit
Writing library : libebml v1.3.9 + libmatroska v1.5.2
Cover : Yes
Attachments : cover.jpg
Video
ID : 1
Format : HEVC
Format/Info : High Efficiency Video Coding
Format profile : Main [email protected]@High
HDR format : SMPTE ST 2086, HDR10 compatible
Codec ID : V_MPEGH/ISO/HEVC
Duration : 1 h 42 min
Bit rate : 40.3 Mb/s
Width : 3 840 pixels
Height : 2 160 pixels
Display aspect ratio : 16:9
Frame rate mode : Constant
Frame rate : 23.976 (24000/1001) FPS
Color space : YUV
Chroma subsampling : 4:2:0 (Type 2)
Bit depth : 10 bits
Bits/(Pixel*Frame) : 0.202
Stream size : 28.8 GiB (83%)
Writing library : ATEME Titan File 3.9.0 (4.9.0.0)
Language : English
Default : No
Forced : No
Color range : Limited
Color primaries : BT.2020
Transfer characteristics : PQ
Matrix coefficients : BT.2020 non-constant
Mastering display color pri : Display P3
Mastering display luminance : min: 0.0000 cd/m2, max: 1000 cd/m2
Audio #1
ID : 2
Format : AC-3
Format/Info : Audio Coding 3
Commercial name : Dolby Digital
Codec ID : A_AC3
Duration : 1 h 42 min
Bit rate mode : Constant
Bit rate : 384 kb/s
Channel(s) : 6 channels
Channel layout : L R C LFE Ls Rs
Sampling rate : 48.0 kHz
Frame rate : 31.250 FPS (1536 SPF)
Compression mode : Lossy
Stream size : 281 MiB (1%)
Title : iTunes
Language : Russian
Service kind : Complete Main
Default : Yes
Forced : Yes
Audio #2
ID : 3
Format : MLP FBA 16-ch
Format/Info : Meridian Lossless Packing FBA with 16-channel presentation
Commercial name : Dolby TrueHD with Dolby Atmos
Codec ID : A_TRUEHD
Duration : 1 h 42 min
Bit rate mode : Variable
Bit rate : 7 021 kb/s
Maximum bit rate : 10.9 Mb/s
Channel(s) : 8 channels
Channel layout : L R C LFE Ls Rs Lb Rb
Sampling rate : 48.0 kHz
Frame rate : 1 200.000 FPS (40 SPF)
Compression mode : Lossless
Stream size : 5.02 GiB (15%)
Title : Original
Language : English
Default : No
Forced : No
Number of dynamic objects : 13
Bed channel count : 1 channel
Bed channel configuration : LFE
Audio #3
ID : 4
Format : AC-3
Format/Info : Audio Coding 3
Commercial name : Dolby Digital
Codec ID : A_AC3
Duration : 1 h 42 min
Bit rate mode : Constant
Bit rate : 640 kb/s
Channel(s) : 6 channels
Channel layout : L R C LFE Ls Rs
Sampling rate : 48.0 kHz
Frame rate : 31.250 FPS (1536 SPF)
Compression mode : Lossy
Stream size : 469 MiB (1%)
Language : English
Service kind : Complete Main
Default : No
Forced : No
Text #1
ID : 5
Format : UTF-8
Codec ID : S_TEXT/UTF8
Codec ID/Info : UTF-8 Plain Text
Duration : 1 h 31 min
Bit rate : 113 b/s
Count of elements : 1556
Stream size : 76.3 KiB (0%)
Title : Full
Language : Russian
Default : No
Forced : No
Text #2
ID : 6
Format : UTF-8
Codec ID : S_TEXT/UTF8
Codec ID/Info : UTF-8 Plain Text
Duration : 1 h 35 min
Bit rate : 75 b/s
Count of elements : 1904
Stream size : 53.0 KiB (0%)
Language : English
Default : No
Forced : No
Menu
00:00:00.686 : en:Studio Logo
00:00:49.686 : en:Long ago
00:03:04.686 : en:Title Sequence
00:03:09.686 : en:Ian's morning
00:05:03.686 : en:Officer Bronco comes to Ligjtfoots
00:07:03.686 : en:Ian meet Dad's friend
00:08:14.686 : en:Making a list
00:09:34.686 : en:Ian starts his day
00:12:44.686 : en:Ian misses his Dad
00:14:53.686 : en:A gift from Dad
00:19:17.686 : en:Ian is at his room
00:20:38.686 : en:Barley comes up with something
00:23:46.686 : en:Barley drives his car
00:25:34.686 : en:Learning magic
00:27:25.686 : en:The boys look for the Manticore
00:31:21.686 : en:The Manticore comes back
00:32:49.686 : en:Laurel worries about the boys
00:36:33.686 : en:Guinevere gets a trouble
00:39:34.686 : en:Ian tries magic again
00:42:48.686 : en:The Manticore talks to Laurel
00:44:00.686 : en:Ian drives Guinevere
00:47:48.686 : en:The spell wears off
00:51:43.686 : en:Barley argues with Ian
00:54:59.686 : en:Grecklin of the Pawn shop
00:56:07.686 : en:Bronco calls Laurel
00:57:24.686 : en:Raven's Point
01:03:06.686 : en:Bronco chases the boys
01:07:05.686 : en:The boys follow the birds
01:08:49.686 : en:Ian likes the spell
01:10:06.686 : en:Laurel encounters Pixie Dusters
01:11:12.686 : en:Barley talks about Dad
01:13:30.686 : en:The boys are in dangerous
01:15:58.686 : en:Back where they started
01:17:59.686 : en:Barley cannot give it up
01:20:26.686 : en:It's curse
01:22:44.686 : en:I am a mighty warrior
01:24:26.686 : en:Ian's decision
01:26:59.686 : en:What Ian see
01:30:07.686 : en:Ian back to his school
01:32:53.686 : en:End Credits


Display posts:    

Current time is: 20-Sep 23:39

All times are UTC ± 0


You cannot post new topics in this forum
You cannot reply to topics in this forum
You cannot edit your posts in this forum
You cannot delete your posts in this forum
You cannot vote in polls in this forum
You cannot attach files in this forum
You cannot download files in this forum

!ATTENTION!
The site does not give electronic versions of products, and is engaged only in a collecting and cataloguing of the references sent and published at a forum by our readers. If you are the legal owner of any submitted material and do not wish that the reference to it was in our catalogue, contact us and we shall immediately remove her. Files for an exchange on tracker are given by users of a site, and the administration does not bear the responsibility for their maintenance. The request to not fill in the files protected by copyrights, and also files of the illegal maintenance!