Ивановский Торрент трекер
Яндекс.Погода
DL-List and Torrent activity
Size:  852 MB   |    Registered:  4 months 21 day   |    Completed:  34 times

Seeder not seen: 3 months 15 days

 
     
 
 
 

[Quote]
sergey82

Последний герой. Зрители против звёзд. 14-ая серия. Побег из Рая.
Дата/Год выпуска: 02.05.2020
Страна: Россия
Жанр: реалити-шоу
Продолжительность: 01:05:18
Перевод: Не требуется
Телеканал: ТВ 3
Описание: Легендарное реалити "Последний герой" возвращается! В новом сезоне самого успешного проекта ТВ-3 случится то, что полностью перевернёт правила игры. Против звёзд выступят обычные зрители. Они проверят на честность легендарный проект, сразятся против знаменитостей и испытают на себе все трудности жизни на острове. Всё будет на сто процентов по-настоящему! "Последний герой. Зрители против звёзд" с Яной Трояновой.
качество: IPTVRip-AVC
формат: MKV
Видео: H264 mpeg4 AVC, 720х540, 25 fps, ~1700kbps
Аудио: AC3, 192kbps, 44100, stereo
Реклама: большие блоки вырезаны

MediaInfo

Формат : Matroska
Версия формата : Version 4
Размер файла : 852 Мбайт
Продолжительность : 1 ч. 5 м.
Режим общего битрейта : Переменный
Общий поток : 1824 Кбит/сек
Программа кодирования : Lavf57.71.100
Библиотека кодирования : Lavf57.71.100
ErrorDetectionType : Per level 1
Видео
Идентификатор : 1
Формат : AVC
Формат/Информация : Advanced Video Codec
Профиль формата : [email protected]
Настройки формата : CABAC / 4 Ref Frames
Параметр CABAC формата : Да
Параметр RefFrames формата : 4 кадра
Идентификатор кодека : V_MPEG4/ISO/AVC
Продолжительность : 1 ч. 5 м.
Вид битрейта : Переменный
Битрейт : 1596 Кбит/сек
Максимальный битрейт : 1800 Кбит/сек
Ширина : 720 пикселей
Высота : 540 пикселей
Соотношение сторон : 16:9
Режим частоты кадров : Постоянный
Частота кадров : 25,000 кадров/сек
Цветовое пространство : YUV
Субдискретизация насыщенности : 4:2:0
Битовая глубина : 8 бит
Тип развёртки : Прогрессивная
Бит/(Пиксели*Кадры) : 0.164
Размер потока : 745 Мбайт (87%)
Default : Да
Forced : Нет
Аудио
Идентификатор : 2
Формат : AC-3
Формат/Информация : Audio Coding 3
Коммерческое название : Dolby Digital
Идентификатор кодека : A_AC3
Продолжительность : 1 ч. 5 м.
Вид битрейта : Постоянный
Битрейт : 192 Кбит/сек
Каналы : 2 канала
ChannelLayout : L R
Частота : 48,0 КГц
Частота кадров : 31,250 кадров/сек (1536 SPF)
Метод сжатия : С потерями
Задержка видео : -111 мс.
Размер потока : 89,7 Мбайт (11%)
Язык : unknown
ServiceKind/String : Complete Main
Default : Да
Forced : Нет

Скриншоты

[iv-torrents.com].t108475.torrent
Torrent: Registered [ 2020-05-02 14:10 ] · 615DB75D0000C920714E44269151AF3B5EA6DF76

Download .torrent

Download

34 KB

Status: checked
Completed: 34 times
Size: 852 MB
Оценка:  - (Голосов: 0)
terms.php


Display posts:    

Current time is: 23-Sep 22:42

All times are UTC ± 0


You cannot post new topics in this forum
You cannot reply to topics in this forum
You cannot edit your posts in this forum
You cannot delete your posts in this forum
You cannot vote in polls in this forum
You cannot attach files in this forum
You can download files in this forum

!ATTENTION!
The site does not give electronic versions of products, and is engaged only in a collecting and cataloguing of the references sent and published at a forum by our readers. If you are the legal owner of any submitted material and do not wish that the reference to it was in our catalogue, contact us and we shall immediately remove her. Files for an exchange on tracker are given by users of a site, and the administration does not bear the responsibility for their maintenance. The request to not fill in the files protected by copyrights, and also files of the illegal maintenance!