Ивановский Торрент трекер
Яндекс.Погода
 

[Quote]
HUNTER

Ольга Серябкина

Жанр: Pop
Носитель + Источник: STREAM STREAM2 STREAM3
Страна-производитель диска (релиза): РФ
Лета изданий: 2015-2020
Аудиокодек: FLAC
Тип рипа: tracks
Битрейт аудио: lossless
Наличие сканов в содержимом раздачи: нет
Общая продолжительность: 01:46:38Album, EP

2019-04-04 - Косатка в небе - 00:44:13


01. Ольга Серябкина - Не плачу
02. Ольга Серябкина - Холодная любовь
03. Ольга Серябкина - Ты ничего не понял
04. Ольга Серябкина - Косатка
05. Ольга Серябкина - Не бойся
06. Ольга Серябкина - Мама
07. Ольга Серябкина, Максим Фадеев - Рассыпая серебро
08. Ольга Серябкина - Потому что любовь
09. Ольга Серябкина - Пьяная
10. Ольга Серябкина - Набери мой номер (Vintage 1988 год, CCCР)
11. Ольга Серябкина, Егор Крид - Если ты меня не любишь
12. Ольга Серябкина - Красивый мальчик
13. Ольга Серябкина - Я просто люблю тебя
14. Ольга Серябкина - Полуголые (Bonus Track)

auCDtect

CUE Corrector v. 8.3.6 / b. 964 (Feb. 13, 2020)
————————————————————————————————————————————————————————————————————————
Ольга Серябкина / Косатка в небе
Folder: 2019-04-04 Косатка в небе
Audio files:
01. Ольга Серябкина - Не плачу.flac [03:01.760; FLAC • 952 kbps • 16 bit \ 44100 Hz • stereo; 20,63 MB (21 629 593 B)]
02. Ольга Серябкина - Холодная любовь.flac [03:12.293; FLAC • 880 kbps • 16 bit \ 44100 Hz • stereo; 20,18 MB (21 165 079 B)]
03. Ольга Серябкина - Ты ничего не понял.flac [02:28.813; FLAC • 908 kbps • 16 bit \ 44100 Hz • stereo; 16,12 MB (16 902 756 B)]
04. Ольга Серябкина - Косатка.flac [03:16.000; FLAC • 945 kbps • 16 bit \ 44100 Hz • stereo; 22,08 MB (23 151 847 B)]
05. Ольга Серябкина - Не бойся.flac [03:03.547; FLAC • 909 kbps • 16 bit \ 44100 Hz • stereo; 19,90 MB (20 871 831 B)]
06. Ольга Серябкина - Мама.flac [02:49.200; FLAC • 991 kbps • 16 bit \ 44100 Hz • stereo; 20,00 MB (20 972 770 B)]
07. Ольга Серябкина, Максим Фадеев - Рассыпая серебро.flac [03:36.760; FLAC • 1065 kbps • 16 bit \ 44100 Hz • stereo; 27,53 MB (28 870 409 B)]
08. Ольга Серябкина - Потому что любовь.flac [03:24.947; FLAC • 955 kbps • 16 bit \ 44100 Hz • stereo; 23,33 MB (24 466 763 B)]
09. Ольга Серябкина - Пьяная.flac [03:20.787; FLAC • 1002 kbps • 16 bit \ 44100 Hz • stereo; 24,00 MB (25 167 307 B)]
10. Ольга Серябкина - Набери мой номер (Vintage 1988 год, CCCР).flac [02:52.160; FLAC • 1028 kbps • 16 bit \ 44100 Hz • stereo; 21,10 MB (22 128 185 B)]
11. Ольга Серябкина, Егор Крид - Если ты меня не любишь.flac [03:26.587; FLAC • 1010 kbps • 16 bit \ 44100 Hz • stereo; 24,87 MB (26 081 326 B)]
12. Ольга Серябкина - Красивый мальчик.flac [02:09.693; FLAC • 952 kbps • 16 bit \ 44100 Hz • stereo; 14,73 MB (15 446 637 B)]
13. Ольга Серябкина - Я просто люблю тебя.flac [04:13.360; FLAC • 928 kbps • 16 bit \ 44100 Hz • stereo; 28,03 MB (29 390 168 B)]
14. Ольга Серябкина - Полуголые (Bonus Track).flac [03:16.067; FLAC • 875 kbps • 16 bit \ 44100 Hz • stereo; 20,47 MB (21 464 911 B)]
Accuracy: -m8
File 01. Ольга Серябкина - Не плачу - 100% CDDA
File 02. Ольга Серябкина - Холодная любовь - 100% CDDA
File 03. Ольга Серябкина - Ты ничего не понял - 99% CDDA
File 04. Ольга Серябкина - Косатка - 100% CDDA
File 05. Ольга Серябкина - Не бойся - 100% CDDA
File 06. Ольга Серябкина - Мама - 100% CDDA
File 07. Ольга Серябкина, Максим Фадеев - Рассыпая серебро - 100% CDDA
File 08. Ольга Серябкина - Потому что любовь - 99% CDDA
File 09. Ольга Серябкина - Пьяная - 100% CDDA
File 10. Ольга Серябкина - Набери мой номер (Vintage 1988 год, CCCР) - 100% CDDA
File 11. Ольга Серябкина, Егор Крид - Если ты меня не любишь - 100% CDDA
File 12. Ольга Серябкина - Красивый мальчик - 100% CDDA
File 13. Ольга Серябкина - Я просто люблю тебя - 100% CDDA
File 14. Ольга Серябкина - Полуголые (Bonus Track) - 100% CDDA
————— Summary: —————
These tracks looks like CDDA with probability 100%.
————————————————————————————————————————————————————————————————————————
ANALYZER:
auCDtect: CD records authenticity detector, version 0.8.2
Copyright (c) 2004 Oleg Berngardt. All rights reserved.
Copyright (c) 2004 Alexander Djourik. All rights reserved.
Time elapsed: 25.2 s
Log created at August 16, 2020 09:45:50
=== 319EEDBFF1E7C0DD2C9BBA7A69217B174C066CF6A1D4A86B404C4B91E61C774D ===
-

DRM

foobar2000 1.5.1 / Dynamic Range Meter 1.1.1
log date: 2020-08-16 09:41:43
--------------------------------------------------------------------------------
Analyzed: Ольга Серябкина, Егор Крид / Косатка в небе (1)
Ольга Серябкина, Максим Фадеев / Косатка в небе (2)
Ольга Серябкина / Косатка в небе (3-14)
--------------------------------------------------------------------------------
DR Peak RMS Duration Track
--------------------------------------------------------------------------------
DR5 -0.01 dB -6.00 dB 3:27 11-Если ты меня не любишь
DR5 0.00 dB -6.90 dB 3:37 07-Рассыпая серебро
DR4 -0.01 dB -5.93 dB 3:02 01-Не плачу
DR5 -0.01 dB -7.92 dB 3:12 02-Холодная любовь
DR5 -0.01 dB -7.57 dB 2:29 03-Ты ничего не понял
DR5 -0.01 dB -7.79 dB 3:16 04-Косатка
DR6 -0.01 dB -7.83 dB 3:04 05-Не бойся
DR5 -0.01 dB -6.83 dB 2:49 06-Мама
DR5 -0.01 dB -7.18 dB 3:25 08-Потому что любовь
DR3 0.00 dB -4.44 dB 3:21 09-Пьяная
DR5 0.00 dB -6.48 dB 2:52 10-Набери мой номер (Vintage 1988 год, CCCР)
DR6 -0.01 dB -7.81 dB 2:10 12-Красивый мальчик
DR4 0.00 dB -6.36 dB 4:13 13-Я просто люблю тебя
DR5 -0.01 dB -7.64 dB 3:16 14-Полуголые (Bonus Track)
--------------------------------------------------------------------------------
Number of tracks: 14
Official DR value: DR5
Samplerate: 44100 Hz
Channels: 2
Bits per sample: 16
Bitrate: 848 kbps
Codec: FLAC
================================================================================

2020-05-01 - Причины EP - 00:11:22


01. Ольга Серябкина - Делай громче
02. Ольга Серябкина - Спутники
03. Ольга Серябкина - Он не придёт
04. Ольга Серябкина - Tet-a-Tet

auCDtect

CUE Corrector v. 8.3.6 / b. 964 (Feb. 13, 2020)
————————————————————————————————————————————————————————————————————————
Ольга Серябкина / Причины EP
Folder: 2020-05-01 Причины EP
Audio files:
01. Ольга Серябкина - Делай громче.flac [02:47.800; FLAC • 955 kbps • 16 bit \ 44100 Hz • stereo; 19,11 MB (20 034 990 B)]
02. Ольга Серябкина - Спутники.flac [03:08.573; FLAC • 980 kbps • 16 bit \ 44100 Hz • stereo; 22,04 MB (23 114 665 B)]
03. Ольга Серябкина - Он не придёт.flac [02:48.213; FLAC • 920 kbps • 16 bit \ 44100 Hz • stereo; 18,46 MB (19 353 849 B)]
04. Ольга Серябкина - Tet-a-Tet.flac [02:36.640; FLAC • 979 kbps • 16 bit \ 44100 Hz • stereo; 18,28 MB (19 169 831 B)]
Accuracy: -m8
File 01. Ольга Серябкина - Делай громче - 100% CDDA
File 02. Ольга Серябкина - Спутники - 100% CDDA
File 03. Ольга Серябкина - Он не придёт - 100% CDDA
File 04. Ольга Серябкина - Tet-a-Tet - 100% CDDA
————— Summary: —————
These tracks looks like CDDA with probability 100%.
————————————————————————————————————————————————————————————————————————
ANALYZER:
auCDtect: CD records authenticity detector, version 0.8.2
Copyright (c) 2004 Oleg Berngardt. All rights reserved.
Copyright (c) 2004 Alexander Djourik. All rights reserved.
Time elapsed: 3.963 s
Log created at August 16, 2020 09:45:22
=== 4B017BEAFB11E81346C2E3DBF03C2CF66BD9486895D9F20382959F7EBF6F1CBE ===
-

DRM

foobar2000 1.5.1 / Dynamic Range Meter 1.1.1
log date: 2020-08-16 09:41:45
--------------------------------------------------------------------------------
Analyzed: Ольга Серябкина / Причины EP
--------------------------------------------------------------------------------
DR Peak RMS Duration Track
--------------------------------------------------------------------------------
DR5 -0.96 dB -7.63 dB 2:48 01-Делай громче
DR4 -0.96 dB -5.86 dB 3:09 02-Спутники
DR5 -0.82 dB -6.90 dB 2:48 03-Он не придёт
DR8 0.00 dB -10.67 dB 2:37 04-Tet-a-Tet
--------------------------------------------------------------------------------
Number of tracks: 4
Official DR value: DR5
Samplerate: 44100 Hz
Channels: 2
Bits per sample: 16
Bitrate: 944 kbps
Codec: FLAC
================================================================================
Single

2015-02-04 - Мы мечтали о сцене - 00:03:03


01. Ольга Серябкина - Мы мечтали о сцене

auCDtect

CUE Corrector v. 8.3.6 / b. 964 (Feb. 13, 2020)
————————————————————————————————————————————————————————————————————————
Ольга Серябкина / Мы мечтали о сцене
Folder: 2015-02-04 Мы мечтали о сцене
Audio file: 01. Ольга Серябкина - Мы мечтали о сцене.flac [03:02.760; FLAC • 1509 kbps • 16 bit \ 96000 Hz • stereo; 32,88 MB (34 480 665 B)]
Accuracy: -m8
File 01. Ольга Серябкина - Мы мечтали о сцене - error*1
————— Summary: —————
Сheck was not performed.
*1 File 96000 Hz not supported
————————————————————————————————————————————————————————————————————————
Log created at August 16, 2020 09:45:14
=== 1C77E47035C04B40F411D5AF5A65F3530281FD1501BB9D640E02B466FC5D21EC ===
-

DRM

foobar2000 1.5.1 / Dynamic Range Meter 1.1.1
log date: 2020-08-16 09:41:46
--------------------------------------------------------------------------------
Statistics for: 01-Мы мечтали о сцене
Number of samples: 17544960
Duration: 3:03
--------------------------------------------------------------------------------
Left Right
Peak Value: 0.00 dB --- 0.00 dB
Avg RMS: -6.71 dB --- -6.97 dB
DR channel: 5.04 dB --- 4.96 dB
--------------------------------------------------------------------------------
Official DR Value: DR5
Samplerate: 96000 Hz
Channels: 2
Bits per sample: 16
Bitrate: 1488 kbps
Codec: FLAC
================================================================================

2015-03-06 - Holy Molly - 00:04:14


01. Ольга Серябкина - Holy Molly

auCDtect

CUE Corrector v. 8.3.6 / b. 964 (Feb. 13, 2020)
————————————————————————————————————————————————————————————————————————
Ольга Серябкина / Holy Molly
Folder: 2015-03-06 Holy Molly
Audio file: 01. Ольга Серябкина - Holy Molly.flac [04:14.387; FLAC • 1108 kbps • 16 bit \ 44100 Hz • stereo; 33,61 MB (35 237 871 B)]
Accuracy: -m8
File 01. Ольга Серябкина - Holy Molly - 100% CDDA
————— Summary: —————
This track looks like CDDA with probability 100%.
————————————————————————————————————————————————————————————————————————
ANALYZER:
auCDtect: CD records authenticity detector, version 0.8.2
Copyright (c) 2004 Oleg Berngardt. All rights reserved.
Copyright (c) 2004 Alexander Djourik. All rights reserved.
Time elapsed: 1.613 s
Log created at August 16, 2020 09:45:18
=== A4BE4A2355178D0BC6B956BCB9671987FF66A7E3B480F1CD999E3C3BC37DE85F ===
-

DRM

foobar2000 1.5.1 / Dynamic Range Meter 1.1.1
log date: 2020-08-16 09:41:47
--------------------------------------------------------------------------------
Statistics for: 01-Holy Molly
Number of samples: 11218041
Duration: 4:14
--------------------------------------------------------------------------------
Left Right
Peak Value: 0.00 dB --- 0.00 dB
Avg RMS: -5.83 dB --- -5.84 dB
DR channel: 3.99 dB --- 3.94 dB
--------------------------------------------------------------------------------
Official DR Value: DR4
Samplerate: 44100 Hz
Channels: 2
Bits per sample: 16
Bitrate: 1087 kbps
Codec: FLAC
================================================================================

2015-04-23 - FOR MA MA - 00:04:20


01. Ольга Серябкина - FOR MA MA

auCDtect

CUE Corrector v. 8.3.6 / b. 964 (Feb. 13, 2020)
————————————————————————————————————————————————————————————————————————
Ольга Серябкина / FOR MA MA
Folder: 2015-04-23 FOR MA MA
Audio file: 01. Ольга Серябкина - FOR MA MA.flac [04:20.187; FLAC • 1480 kbps • 16 bit \ 96000 Hz • stereo; 45,93 MB (48 165 526 B)]
Accuracy: -m8
File 01. Ольга Серябкина - FOR MA MA - error*1
————— Summary: —————
Сheck was not performed.
*1 File 96000 Hz not supported
————————————————————————————————————————————————————————————————————————
Log created at August 16, 2020 09:45:14
=== 2DD24F34B2C24A79541DB81DAE4985559C22EADC8B98DD2A4298C30C5183393C ===
-

DRM

foobar2000 1.5.1 / Dynamic Range Meter 1.1.1
log date: 2020-08-16 09:41:48
--------------------------------------------------------------------------------
Statistics for: 01-FOR MA MA
Number of samples: 24977142
Duration: 4:20
--------------------------------------------------------------------------------
Left Right
Peak Value: 0.00 dB --- 0.00 dB
Avg RMS: -7.77 dB --- -7.67 dB
DR channel: 6.38 dB --- 6.32 dB
--------------------------------------------------------------------------------
Official DR Value: DR6
Samplerate: 96000 Hz
Channels: 2
Bits per sample: 16
Bitrate: 1447 kbps
Codec: FLAC
================================================================================

2015-12-13 - Zoom - 00:03:23


01. Ольга Серябкина - Zoom

auCDtect

CUE Corrector v. 8.3.6 / b. 964 (Feb. 13, 2020)
————————————————————————————————————————————————————————————————————————
Ольга Серябкина / Zoom
Folder: 2015-12-13 Zoom
Audio file: 01. Ольга Серябкина - Zoom.flac [03:23.280; FLAC • 933 kbps • 16 bit \ 44100 Hz • stereo; 22,63 MB (23 728 726 B)]
Accuracy: -m8
File 01. Ольга Серябкина - Zoom - 100% CDDA
————— Summary: —————
This track looks like CDDA with probability 100%.
————————————————————————————————————————————————————————————————————————
ANALYZER:
auCDtect: CD records authenticity detector, version 0.8.2
Copyright (c) 2004 Oleg Berngardt. All rights reserved.
Copyright (c) 2004 Alexander Djourik. All rights reserved.
Time elapsed: 1.547 s
Log created at August 16, 2020 09:45:17
=== 436A8B1761BE745FA68654D95EC862419D3C957A15CE56FB62F7FA82A1F9AE0A ===
-

DRM

foobar2000 1.5.1 / Dynamic Range Meter 1.1.1
log date: 2020-08-16 09:41:49
--------------------------------------------------------------------------------
Statistics for: 01-Zoom
Number of samples: 8964648
Duration: 3:23
--------------------------------------------------------------------------------
Left Right
Peak Value: 0.00 dB --- 0.00 dB
Avg RMS: -6.38 dB --- -6.20 dB
DR channel: 3.76 dB --- 3.52 dB
--------------------------------------------------------------------------------
Official DR Value: DR4
Samplerate: 44100 Hz
Channels: 2
Bits per sample: 16
Bitrate: 906 kbps
Codec: FLAC
================================================================================

2016-11-09 - Style - 00:03:05


01. Ольга Серябкина - Style

auCDtect

CUE Corrector v. 8.3.6 / b. 964 (Feb. 13, 2020)
————————————————————————————————————————————————————————————————————————
Ольга Серябкина / Style
Folder: 2016-11-09 Style
Audio file: 01. Ольга Серябкина - Style.flac [03:05.253; FLAC • 1614 kbps • 16 bit \ 96000 Hz • stereo; 35,64 MB (37 375 230 B)]
Accuracy: -m8
File 01. Ольга Серябкина - Style - error*1
————— Summary: —————
Сheck was not performed.
*1 File 96000 Hz not supported
————————————————————————————————————————————————————————————————————————
Time elapsed: 0.000 s
Log created at August 16, 2020 09:45:14
=== 02D314E4F9ED88DDFE2455955F402A91473E36BCE83337E4310AEF63443C65A6 ===
-

DRM

foobar2000 1.5.1 / Dynamic Range Meter 1.1.1
log date: 2020-08-16 09:41:50
--------------------------------------------------------------------------------
Statistics for: 01-Style
Number of samples: 17784000
Duration: 3:05
--------------------------------------------------------------------------------
Left Right
Peak Value: 0.00 dB --- 0.00 dB
Avg RMS: -5.70 dB --- -5.77 dB
DR channel: 4.53 dB --- 4.62 dB
--------------------------------------------------------------------------------
Official DR Value: DR5
Samplerate: 96000 Hz
Channels: 2
Bits per sample: 16
Bitrate: 1596 kbps
Codec: FLAC
================================================================================

2016-12-27 - Я просто люблю тебя (Dance Version) - 00:03:30


01. Ольга Серябкина - Я просто люблю тебя (Dance Version)

auCDtect

CUE Corrector v. 8.3.6 / b. 964 (Feb. 13, 2020)
————————————————————————————————————————————————————————————————————————
Ольга Серябкина / Я просто люблю тебя (Dance Version)
Folder: 2016-12-27 Я просто люблю тебя (Dance Version)
Audio file: 01. Ольга Серябкина - Я просто люблю тебя (Dance Version).flac [03:29.760; FLAC • 1530 kbps • 16 bit \ 96000 Hz • stereo; 38,28 MB (40 141 967 B)]
Accuracy: -m8
File 01. Ольга Серябкина - Я просто люблю тебя (Dance Version) - error*1
————— Summary: —————
Сheck was not performed.
*1 File 96000 Hz not supported
————————————————————————————————————————————————————————————————————————
Time elapsed: 0.000 s
Log created at August 16, 2020 09:45:14
=== 0CFE97E8834F07D3441368A256F23AB62430A2BFF22A154A02FDAD55CACC6BA3 ===
-

DRM

foobar2000 1.5.1 / Dynamic Range Meter 1.1.1
log date: 2020-08-16 09:41:51
--------------------------------------------------------------------------------
Statistics for: 01-Я просто люблю тебя (Dance Version)
Number of samples: 20136586
Duration: 3:30
--------------------------------------------------------------------------------
Left Right
Peak Value: 0.00 dB --- 0.00 dB
Avg RMS: -5.32 dB --- -5.39 dB
DR channel: 4.02 dB --- 4.10 dB
--------------------------------------------------------------------------------
Official DR Value: DR4
Samplerate: 96000 Hz
Channels: 2
Bits per sample: 16
Bitrate: 1511 kbps
Codec: FLAC
================================================================================

2017-05-31 - Если ты меня не любишь (E.M.O. Remix by D. Babichev) - 00:03:10


01. Ольга Серябкина, Егор Крид - Если ты меня не любишь (E.M.O. Remix by D. Babichev)

auCDtect

CUE Corrector v. 8.3.6 / b. 964 (Feb. 13, 2020)
————————————————————————————————————————————————————————————————————————
Ольга Серябкина / Если ты меня не любишь (E.M.O. Remix by D. Babichev)
Folder: 2017-05-31 Если ты меня не любишь (E.M.O. Remix by D. Babichev)
Audio file: 01. Ольга Серябкина, Егор Крид - Если ты меня не любишь (E.M.O. Remix by D. Babichev).flac [03:09.867; FLAC • 1036 kbps • 16 bit \ 44100 Hz • stereo; 23,45 MB (24 593 445 B)]
Accuracy: -m8
File 01. Ольга Серябкина, Егор Крид - Если ты меня не любишь (E.M.O. Remix by D. Babichev) - 100% CDDA
————— Summary: —————
This track looks like CDDA with probability 100%.
————————————————————————————————————————————————————————————————————————
ANALYZER:
auCDtect: CD records authenticity detector, version 0.8.2
Copyright (c) 2004 Oleg Berngardt. All rights reserved.
Copyright (c) 2004 Alexander Djourik. All rights reserved.
Time elapsed: 1.558 s
Log created at August 16, 2020 09:45:17
=== 095D0FC06005F3AE00625891C59B9848A8489A29B112784F0E3075FDFF7F4FA6 ===
-

DRM

foobar2000 1.5.1 / Dynamic Range Meter 1.1.1
log date: 2020-08-16 09:41:51
--------------------------------------------------------------------------------
Statistics for: 01-Если ты меня не любишь (E.M.O. Remix by D. Babichev)
Number of samples: 8372700
Duration: 3:10
--------------------------------------------------------------------------------
Left Right
Peak Value: 0.00 dB --- 0.00 dB
Avg RMS: -6.83 dB --- -6.89 dB
DR channel: 4.32 dB --- 4.35 dB
--------------------------------------------------------------------------------
Official DR Value: DR4
Samplerate: 44100 Hz
Channels: 2
Bits per sample: 16
Bitrate: 1030 kbps
Codec: FLAC
================================================================================

2017-06-23 - Fire - 00:03:28


01. Ольга Серябкина - Fire

auCDtect

CUE Corrector v. 8.3.6 / b. 964 (Feb. 13, 2020)
————————————————————————————————————————————————————————————————————————
Ольга Серябкина / Fire
Folder: 2017-06-23 Fire
Audio file: 01. Ольга Серябкина - Fire.flac [03:27.587; FLAC • 1393 kbps • 16 bit \ 96000 Hz • stereo; 34,48 MB (36 151 446 B)]
Accuracy: -m8
File 01. Ольга Серябкина - Fire - error*1
————— Summary: —————
Сheck was not performed.
*1 File 96000 Hz not supported
————————————————————————————————————————————————————————————————————————
Time elapsed: 0.000 s
Log created at August 16, 2020 09:45:14
=== BB664BFBCBC4CFDF91553E27F6524B12D893A3C628803A665A8BD4A5407E0D82 ===
-

DRM

foobar2000 1.5.1 / Dynamic Range Meter 1.1.1
log date: 2020-08-16 09:41:52
--------------------------------------------------------------------------------
Statistics for: 01-Fire
Number of samples: 19927273
Duration: 3:28
--------------------------------------------------------------------------------
Left Right
Peak Value: 0.00 dB --- 0.00 dB
Avg RMS: -5.86 dB --- -6.11 dB
DR channel: 4.61 dB --- 4.84 dB
--------------------------------------------------------------------------------
Official DR Value: DR5
Samplerate: 96000 Hz
Channels: 2
Bits per sample: 16
Bitrate: 1378 kbps
Codec: FLAC
================================================================================

2017-09-01 - Мне нравится (feat. Big Russian Boss) - 00:02:39


01. Ольга Серябкина, Big Russian Boss - Мне нравится (feat. Big Russian Boss)

auCDtect

CUE Corrector v. 8.3.6 / b. 964 (Feb. 13, 2020)
————————————————————————————————————————————————————————————————————————
Ольга Серябкина / Мне нравится (feat. Big Russian Boss)
Folder: 2017-09-01 Мне нравится (feat. Big Russian Boss)
Audio file: 01. Ольга Серябкина, Big Russian Boss - Мне нравится (feat. Big Russian Boss).flac [02:38.547; FLAC • 1347 kbps • 16 bit \ 96000 Hz • stereo; 25,47 MB (26 709 647 B)]
Accuracy: -m8
File 01. Ольга Серябкина, Big Russian Boss - Мне нравится (feat. Big Russian Boss) - error*1
————— Summary: —————
Сheck was not performed.
*1 File 96000 Hz not supported
————————————————————————————————————————————————————————————————————————
Log created at August 16, 2020 09:45:14
=== B56CADF5436924C03B0E45E17AB2A966A3FD1C223BF470DBC64FCC6E8EEB2173 ===
-

DRM

foobar2000 1.5.1 / Dynamic Range Meter 1.1.1
log date: 2020-08-16 09:41:53
--------------------------------------------------------------------------------
Statistics for: 01-Мне нравится (feat. Big Russian Boss)
Number of samples: 15220254
Duration: 2:39
--------------------------------------------------------------------------------
Left Right
Peak Value: 0.00 dB --- 0.00 dB
Avg RMS: -8.11 dB --- -8.20 dB
DR channel: 6.30 dB --- 6.32 dB
--------------------------------------------------------------------------------
Official DR Value: DR6
Samplerate: 96000 Hz
Channels: 2
Bits per sample: 16
Bitrate: 1318 kbps
Codec: FLAC
================================================================================

2018-05-21 - BackFire - 00:03:07


01. Ольга Серябкина, Максим Свобода - BackFire

auCDtect

CUE Corrector v. 8.3.6 / b. 964 (Feb. 13, 2020)
————————————————————————————————————————————————————————————————————————
Ольга Серябкина / BackFire
Folder: 2018-05-21 BackFire
Audio file: 01. Ольга Серябкина, Максим Свобода - BackFire.flac [03:07.213; FLAC • 1038 kbps • 16 bit \ 44100 Hz • stereo; 23,18 MB (24 309 996 B)]
Accuracy: -m8
File 01. Ольга Серябкина, Максим Свобода - BackFire - 100% CDDA
————— Summary: —————
This track looks like CDDA with probability 100%.
————————————————————————————————————————————————————————————————————————
ANALYZER:
auCDtect: CD records authenticity detector, version 0.8.2
Copyright (c) 2004 Oleg Berngardt. All rights reserved.
Copyright (c) 2004 Alexander Djourik. All rights reserved.
Time elapsed: 1.440 s
Log created at August 16, 2020 09:45:17
=== 25E8ED84096E0A38D42BD31C229E737C239FCA9F9FCE7F8DEE24EE656BAE9373 ===
-

DRM

foobar2000 1.5.1 / Dynamic Range Meter 1.1.1
log date: 2020-08-16 09:41:53
--------------------------------------------------------------------------------
Statistics for: 01-BackFire
Number of samples: 8255695
Duration: 3:07
--------------------------------------------------------------------------------
Left Right
Peak Value: 0.00 dB --- 0.00 dB
Avg RMS: -7.30 dB --- -7.17 dB
DR channel: 5.12 dB --- 5.14 dB
--------------------------------------------------------------------------------
Official DR Value: DR5
Samplerate: 44100 Hz
Channels: 2
Bits per sample: 16
Bitrate: 1021 kbps
Codec: FLAC
================================================================================

2018-07-27 - Under My Skin - 00:04:31


01. Ольга Серябкина - Under My Skin

auCDtect

CUE Corrector v. 8.3.6 / b. 964 (Feb. 13, 2020)
————————————————————————————————————————————————————————————————————————
Ольга Серябкина / Under My Skin
Folder: 2018-07-27 Under My Skin
Audio file: 01. Ольга Серябкина - Under My Skin.flac [04:31.373; FLAC • 990 kbps • 16 bit \ 44100 Hz • stereo; 32,03 MB (33 588 065 B)]
Accuracy: -m8
File 01. Ольга Серябкина - Under My Skin - 100% CDDA
————— Summary: —————
This track looks like CDDA with probability 100%.
————————————————————————————————————————————————————————————————————————
ANALYZER:
auCDtect: CD records authenticity detector, version 0.8.2
Copyright (c) 2004 Oleg Berngardt. All rights reserved.
Copyright (c) 2004 Alexander Djourik. All rights reserved.
Time elapsed: 1.898 s
Log created at August 16, 2020 09:45:18
=== B1D7DE4CB9A2C1819CA544D3FEC51EE44A2DFEE3CEC26AE39EEBDEACBA14A77F ===
-

DRM

foobar2000 1.5.1 / Dynamic Range Meter 1.1.1
log date: 2020-08-16 09:41:54
--------------------------------------------------------------------------------
Statistics for: 01-Under My Skin
Number of samples: 11967136
Duration: 4:31
--------------------------------------------------------------------------------
Left Right
Peak Value: 0.00 dB --- 0.00 dB
Avg RMS: -7.19 dB --- -7.16 dB
DR channel: 4.01 dB --- 4.06 dB
--------------------------------------------------------------------------------
Official DR Value: DR4
Samplerate: 44100 Hz
Channels: 2
Bits per sample: 16
Bitrate: 973 kbps
Codec: FLAC
================================================================================

2019-08-23 - Опалённые солнцем - 00:03:01


01. Ольга Серябкина - Опалённые солнцем

auCDtect

CUE Corrector v. 8.3.6 / b. 964 (Feb. 13, 2020)
————————————————————————————————————————————————————————————————————————
Ольга Серябкина / Опалённые солнцем
Folder: 2019-08-23 Опалённые солнцем
Audio file: 01. Ольга Серябкина - Опалённые солнцем.flac [03:01.280; FLAC • 987 kbps • 16 bit \ 44100 Hz • stereo; 21,35 MB (22 387 034 B)]
Accuracy: -m8
File 01. Ольга Серябкина - Опалённые солнцем - 100% CDDA
————— Summary: —————
This track looks like CDDA with probability 100%.
————————————————————————————————————————————————————————————————————————
ANALYZER:
auCDtect: CD records authenticity detector, version 0.8.2
Copyright (c) 2004 Oleg Berngardt. All rights reserved.
Copyright (c) 2004 Alexander Djourik. All rights reserved.
Time elapsed: 1.353 s
Log created at August 16, 2020 09:45:17
=== 41356455339E87475AC63B18F05745BF1E8DA2413B50327A58023DD39196625A ===
-

DRM

foobar2000 1.5.1 / Dynamic Range Meter 1.1.1
log date: 2020-08-16 09:41:55
--------------------------------------------------------------------------------
Statistics for: 01-Опалённые солнцем
Number of samples: 7994298
Duration: 3:01
--------------------------------------------------------------------------------
Left Right
Peak Value: 0.00 dB --- 0.00 dB
Avg RMS: -6.82 dB --- -6.84 dB
DR channel: 5.09 dB --- 5.13 dB
--------------------------------------------------------------------------------
Official DR Value: DR5
Samplerate: 44100 Hz
Channels: 2
Bits per sample: 16
Bitrate: 961 kbps
Codec: FLAC
================================================================================

2020-02-05 - Что же ты наделал - 00:02:41


01. Ольга Серябкина - Что же ты наделал

auCDtect

CUE Corrector v. 8.3.6 / b. 964 (Feb. 13, 2020)
————————————————————————————————————————————————————————————————————————
Ольга Серябкина / Что же ты наделал
Folder: 2020-02-05 Что же ты наделал
Audio file: 01. Ольга Серябкина - Что же ты наделал.flac [02:41.173; FLAC • 1123 kbps • 16 bit \ 44100 Hz • stereo; 21,59 MB (22 640 495 B)]
Accuracy: -m8
File 01. Ольга Серябкина - Что же ты наделал - 100% CDDA
————— Summary: —————
This track looks like CDDA with probability 100%.
————————————————————————————————————————————————————————————————————————
ANALYZER:
auCDtect: CD records authenticity detector, version 0.8.2
Copyright (c) 2004 Oleg Berngardt. All rights reserved.
Copyright (c) 2004 Alexander Djourik. All rights reserved.
Time elapsed: 1.051 s
Log created at August 16, 2020 09:45:19
=== E2921BA05BB9BE3C58C1B52953531FA4D35177B75F2E84CA14C92CF94CDC7151 ===
-

DRM

foobar2000 1.5.1 / Dynamic Range Meter 1.1.1
log date: 2020-08-16 09:41:55
--------------------------------------------------------------------------------
Statistics for: 01-Что же ты наделал
Number of samples: 7107504
Duration: 2:41
--------------------------------------------------------------------------------
Left Right
Peak Value: -1.00 dB --- -1.00 dB
Avg RMS: -6.51 dB --- -6.44 dB
DR channel: 4.56 dB --- 4.52 dB
--------------------------------------------------------------------------------
Official DR Value: DR5
Samplerate: 44100 Hz
Channels: 2
Bits per sample: 16
Bitrate: 1076 kbps
Codec: FLAC
================================================================================

2020-03-17 - Что же ты наделал (Space Edit) - 00:03:20


01. Ольга Серябкина - Что же ты наделал (Space Edit)

auCDtect

CUE Corrector v. 8.3.6 / b. 964 (Feb. 13, 2020)
————————————————————————————————————————————————————————————————————————
Ольга Серябкина / Что же ты наделал (Space Edit)
Folder: 2020-03-17 Что же ты наделал (Space Edit)
Audio file: 01. Ольга Серябкина - Что же ты наделал (Space Edit).flac [03:20.000; FLAC • 1039 kbps • 16 bit \ 44100 Hz • stereo; 24,79 MB (25 995 300 B)]
Accuracy: -m8
File 01. Ольга Серябкина - Что же ты наделал (Space Edit) - 100% CDDA
————— Summary: —————
This track looks like CDDA with probability 100%.
————————————————————————————————————————————————————————————————————————
ANALYZER:
auCDtect: CD records authenticity detector, version 0.8.2
Copyright (c) 2004 Oleg Berngardt. All rights reserved.
Copyright (c) 2004 Alexander Djourik. All rights reserved.
Time elapsed: 1.310 s
Log created at August 16, 2020 09:45:20
=== F9809D4566CAB3E4BD306EA7BF3D4153DDE2E45ADAB4DC48D4A57A3EE9484D3B ===
-

DRM

foobar2000 1.5.1 / Dynamic Range Meter 1.1.1
log date: 2020-08-16 09:41:56
--------------------------------------------------------------------------------
Statistics for: 01-Что же ты наделал (Space Edit)
Number of samples: 8820000
Duration: 3:20
--------------------------------------------------------------------------------
Left Right
Peak Value: -1.10 dB --- -1.10 dB
Avg RMS: -10.08 dB --- -10.00 dB
DR channel: 7.63 dB --- 7.53 dB
--------------------------------------------------------------------------------
Official DR Value: DR8
Samplerate: 44100 Hz
Channels: 2
Bits per sample: 16
Bitrate: 1008 kbps
Codec: FLAC
================================================================================

2020-04-10 - Под водой - 00:03:32


01. Ольга Серябкина - Под водой

auCDtect

CUE Corrector v. 8.3.6 / b. 964 (Feb. 13, 2020)
————————————————————————————————————————————————————————————————————————
Ольга Серябкина / Под водой
Folder: 2020-04-10 Под водой
Audio file: 01. Ольга Серябкина - Под водой.flac [03:32.400; FLAC • 946 kbps • 16 bit \ 44100 Hz • stereo; 23,96 MB (25 122 972 B)]
Accuracy: -m8
File 01. Ольга Серябкина - Под водой - 95% MPEG
————— Summary: —————
This track looks like MPEGs with probability 95%.
————————————————————————————————————————————————————————————————————————
ANALYZER:
auCDtect: CD records authenticity detector, version 0.8.2
Copyright (c) 2004 Oleg Berngardt. All rights reserved.
Copyright (c) 2004 Alexander Djourik. All rights reserved.
Time elapsed: 0.996 s
Log created at August 16, 2020 09:45:20
=== 190FF65550B06AA6D7D8CEDFA93A490F5559A3E148561BE25529DAF1862D840B ===
-

DRM

foobar2000 1.5.1 / Dynamic Range Meter 1.1.1
log date: 2020-08-16 09:41:56
--------------------------------------------------------------------------------
Statistics for: 01-Под водой
Number of samples: 9366372
Duration: 3:32
--------------------------------------------------------------------------------
Left Right
Peak Value: -0.10 dB --- -0.10 dB
Avg RMS: -5.43 dB --- -5.43 dB
DR channel: 4.35 dB --- 4.36 dB
--------------------------------------------------------------------------------
Official DR Value: DR4
Samplerate: 44100 Hz
Channels: 2
Bits per sample: 16
Bitrate: 918 kbps
Codec: FLAC
================================================================================


Display posts:    

Current time is: 23-Sep 23:34

All times are UTC ± 0


You cannot post new topics in this forum
You cannot reply to topics in this forum
You cannot edit your posts in this forum
You cannot delete your posts in this forum
You cannot vote in polls in this forum
You cannot attach files in this forum
You cannot download files in this forum

!ATTENTION!
The site does not give electronic versions of products, and is engaged only in a collecting and cataloguing of the references sent and published at a forum by our readers. If you are the legal owner of any submitted material and do not wish that the reference to it was in our catalogue, contact us and we shall immediately remove her. Files for an exchange on tracker are given by users of a site, and the administration does not bear the responsibility for their maintenance. The request to not fill in the files protected by copyrights, and also files of the illegal maintenance!