Ивановский Торрент трекер
Яндекс.Погода
 

[Quote]
HUNTER

-Питбуль. Последний пес / Pitbull. Ostatni pies / Pitbull: Last Dog
Страна: Польша
Жанр: боевик, драма, криминал
Год выпуска: 2018
Продолжительность: 02:03:56-Перевод: Одноголосый закадровый - М. Чадов (цензурный)
Перевод: Одноголосый закадровый - М. Чадов (нецензурный)
Субтитры: Русские (форсированные), Русские (Ольга Левицкая), Русские (Ольга Левицкая, uncensored), Польские (форсированные), Английские (Full)
Оригинальная аудиодорожка: Польский-Режиссер: Владислав Пасиковски / Wladyslaw Pasikowski-В ролях: Марчин Дорочиньский, Кшиштоф Строиньский, Дорота Рабчевска, Рафаль Мор, Цезарь Пазура, Адам Воронович, Мариан Дзендзель, Агнешка Кавиорска, Мирослява Малюдзинская, Изабела Куна-Описание: Преступные банды Варшавы соперничают между собой за власть над территорией. Длительная борьба между группировками из Воломина и Прушкова прерывается неожиданным появлением третьего участника. В это время неизвестные бандиты жестоко убивают полицейского Сочека. Чтобы найти убийц, коменданту приходится вызвать в столицу самых опытных полицейских, которые теперь работают в провинциальных городах страны. Так, вскоре в Варшаву прибывают настоящие профессионалы Десперо и Метыль, а также из Вашингтона прилетает Квантико. Теперь троице приходится погрузиться в криминальный мир и сделать всё возможное, чтобы противостоять разгулявшейся преступности.-| Сэмпл | IMDB | КиноПоиск |

рип от: potroks
Сборка звука: Skazhutin
Сохранены оригинальные главы как на Blu-ray.-Тип релиза: BDRip 1080p
Контейнер: MKV
Источник: 1080p Blu-ray AVC DTS-HD MA 5.1
Видео: AVC, 1920x804 (2.40:1), 12300 kbps, 24 fps
Аудио 1: Russian: DTS / 5.1 / 48 kHz / 1509 kbps / 24 bit |Одноголосый закадровый, М. Чадов|
Аудио 2: Russian: DTS / 5.1 / 48 kHz / 1509 kbps / 24 bit |Одноголосый закадровый, М. Чадов (нецензурный)|
Аудио 3: Polish: DTS / 5.1 / 48 kHz / 1509 kbps / 24 bit
Формат субтитров: Softsub (.srt*)

MediaInfo

Код:General
Unique ID : 171332848284627782760550581594856016076 (0x80E5819CABA55DC2B13ADD00CDE2C8CC)
Complete name : D:\torrents\Pitbull. Ostatni pies.2018.1080p.BluRay.2xRus.Pol.TeamHD-potroks.mkv
Format : Matroska
Format version : Version 4
File size : 14.5 GiB
Duration : 2 h 3 min
Overall bit rate : 16.8 Mb/s
Movie name : Pitbull. Ostatni pies (2018)
Encoded date : UTC 2018-10-11 06:07:28
Writing application : mkvmerge v5.9.0 ('On The Loose') built on Dec 15 2012 16:39:58
Writing library : libebml v1.3.0 + libmatroska v1.4.0
Video
ID : 1
Format : AVC
Format/Info : Advanced Video Codec
Format profile : [email protected]
Format settings : CABAC / 5 Ref Frames
Format settings, CABAC : Yes
Format settings, RefFrames : 5 frames
Codec ID : V_MPEG4/ISO/AVC
Duration : 2 h 3 min
Bit rate : 12.3 Mb/s
Width : 1 920 pixels
Height : 804 pixels
Display aspect ratio : 2.40:1
Frame rate mode : Constant
Frame rate : 24.000 FPS
Color space : YUV
Chroma subsampling : 4:2:0
Bit depth : 8 bits
Scan type : Progressive
Bits/(Pixel*Frame) : 0.331
Stream size : 10.3 GiB (71%)
Title : potroks
Writing library : x264 core 155 r2901M 7d0ff22
Encoding settings : cabac=1 / ref=5 / deblock=1:-3:-3 / analyse=0x3:0x113 / me=umh / subme=11 / psy=1 / psy_rd=1.05:0.05 / mixed_ref=1 / me_range=48 / chroma_me=1 / trellis=2 / 8x8dct=1 / cqm=0 / deadzone=21,11 / fast_pskip=0 / chroma_qp_offset=-3 / threads=9 / lookahead_threads=2 / sliced_threads=0 / nr=0 / decimate=0 / interlaced=0 / bluray_compat=0 / constrained_intra=0 / bframes=11 / b_pyramid=2 / b_adapt=2 / b_bias=0 / direct=3 / weightb=1 / open_gop=0 / weightp=2 / keyint=240 / keyint_min=23 / scenecut=40 / intra_refresh=0 / rc_lookahead=100 / rc=2pass / mbtree=0 / bitrate=12257 / ratetol=1.0 / qcomp=0.70 / qpmin=0 / qpmax=69 / qpstep=4 / cplxblur=20.0 / qblur=0.5 / vbv_maxrate=50000 / vbv_bufsize=50000 / nal_hrd=none / filler=0 / ip_ratio=1.40 / pb_ratio=1.30 / aq=1:0.70
Language : Polish
Default : Yes
Forced : No
Color range : Limited
Color primaries : BT.709
Transfer characteristics : BT.709
Matrix coefficients : BT.709
Audio #1
ID : 2
Format : DTS
Format/Info : Digital Theater Systems
Codec ID : A_DTS
Duration : 2 h 3 min
Bit rate mode : Constant
Bit rate : 1 509 kb/s
Channel(s) : 6 channels
Channel layout : C L R Ls Rs LFE
Sampling rate : 48.0 kHz
Frame rate : 93.750 FPS (512 SPF)
Bit depth : 24 bits
Compression mode : Lossy
Stream size : 1.31 GiB (9%)
Title : AVO | DTS 5.1 @ 1509 kbps - M.Chadov
Language : Russian
Default : Yes
Forced : Yes
Audio #2
ID : 3
Format : DTS
Format/Info : Digital Theater Systems
Codec ID : A_DTS
Duration : 2 h 3 min
Bit rate mode : Constant
Bit rate : 1 509 kb/s
Channel(s) : 6 channels
Channel layout : C L R Ls Rs LFE
Sampling rate : 48.0 kHz
Frame rate : 93.750 FPS (512 SPF)
Bit depth : 24 bits
Compression mode : Lossy
Stream size : 1.31 GiB (9%)
Title : AVO | DTS 5.1 @ 1509 kbps - M.Chadov [uncensored]
Language : Russian
Default : No
Forced : No
Audio #3
ID : 4
Format : DTS
Format/Info : Digital Theater Systems
Codec ID : A_DTS
Duration : 2 h 3 min
Bit rate mode : Constant
Bit rate : 1 509 kb/s
Channel(s) : 6 channels
Channel layout : C L R Ls Rs LFE
Sampling rate : 48.0 kHz
Frame rate : 93.750 FPS (512 SPF)
Bit depth : 24 bits
Compression mode : Lossy
Stream size : 1.31 GiB (9%)
Title : Original | DTS 5.1 @ 1509 kbps
Language : Polish
Default : No
Forced : No
Text #1
ID : 5
Format : UTF-8
Codec ID : S_TEXT/UTF8
Codec ID/Info : UTF-8 Plain Text
Title : Forced
Language : Russian
Default : Yes
Forced : Yes
Text #2
ID : 6
Format : UTF-8
Codec ID : S_TEXT/UTF8
Codec ID/Info : UTF-8 Plain Text
Title : O. Levitskaya
Language : Russian
Default : No
Forced : No
Text #3
ID : 7
Format : UTF-8
Codec ID : S_TEXT/UTF8
Codec ID/Info : UTF-8 Plain Text
Title : O. Levitskaya [uncensored]
Language : Russian
Default : No
Forced : No
Text #4
ID : 8
Format : UTF-8
Codec ID : S_TEXT/UTF8
Codec ID/Info : UTF-8 Plain Text
Title : Forced
Language : Polish
Default : No
Forced : No
Text #5
ID : 9
Format : UTF-8
Codec ID : S_TEXT/UTF8
Codec ID/Info : UTF-8 Plain Text
Title : Full
Language : English
Default : No
Forced : No
Menu
00:00:00.000 : pl:Chapter 01
00:06:46.500 : pl:Chapter 02
00:14:45.500 : pl:Chapter 03
00:22:57.666 : pl:Chapter 04
00:30:05.458 : pl:Chapter 05
00:39:34.708 : pl:Chapter 06
00:46:39.791 : pl:Chapter 07
00:53:59.583 : pl:Chapter 08
01:03:47.083 : pl:Chapter 09
01:09:17.041 : pl:Chapter 10
01:17:20.291 : pl:Chapter 11
01:24:39.750 : pl:Chapter 12
01:31:37.125 : pl:Chapter 13
01:36:00.166 : pl:Chapter 14
01:43:36.833 : pl:Chapter 15
01:57:12.500 : pl:Chapter 16

Скриншоты


[Quote]
scorpionmilennium

Не качается.
Сидов - 0
Пиров - 0
Display posts:    

Current time is: 30-Sep 05:44

All times are UTC ± 0


You cannot post new topics in this forum
You cannot reply to topics in this forum
You cannot edit your posts in this forum
You cannot delete your posts in this forum
You cannot vote in polls in this forum
You cannot attach files in this forum
You cannot download files in this forum

!ATTENTION!
The site does not give electronic versions of products, and is engaged only in a collecting and cataloguing of the references sent and published at a forum by our readers. If you are the legal owner of any submitted material and do not wish that the reference to it was in our catalogue, contact us and we shall immediately remove her. Files for an exchange on tracker are given by users of a site, and the administration does not bear the responsibility for their maintenance. The request to not fill in the files protected by copyrights, and also files of the illegal maintenance!