Ивановский Торрент трекер
Яндекс.Погода
 

[Quote]
HUNTER

Перри Мейсон | Perry Mason- Год выпуска: 2020
Страна: США
Жанр: Детектив, криминал
Продолжительность: ~ 01:00:00-Перевод: Профессиональный (многоголосый закадровый) | AlexFilm-Режиссёр: Тимоти Ван Паттен, Дениз Гамзе Эргювен-В ролях: Мэттью Риз (Matthew Rhys), Татьяна Маслани (Tatiana Maslany), Джон Литгоу (John Lithgow), Крис Чок (Chris Chalk), Шей Уигэм (Shea Whigham), Джульет Райлэнс (Juliet Rylance), Лили Тейлор (Lili Taylor), Роберт Патрик (Robert Patrick), Стивен Рут (Stephen Root), Эндрю Ховард (Andrew Howard), Рэйчел Булвар (Rachel Boulware), Джедедайя Дженк (Jedediah Jenk)-Описание: 1930-е годы. Адвокат Перри Мэйсон в отличие от своих коллег частенько лично занимается расследованием дел своих клиентов. Иногда Мэйсону помогает частный детектив Пол Дрейк.-[box=#aed8ff,#003465]Ссылка на предыдущие и альтернативные раздачи[/box]- -Качество: WEB-DLRip
Формат: AVI
Видео: XviD, 704x352 (2,000), 23,976 кадров/сек, ~1600 Кбит/сек
Аудио Rus: AC3, 48,0 kHz, 2 ch, 192 Кбит/сек | AlexFilm
Аудио Eng: AC3, 48,0 kHz, 2 ch, 192 Кбит/сек
Субтитры: Русские (Forced, Full [Amedia]), английские (SDH)
Реклама: Отсутствует-

MediaInfo

Общее
Полное имя : E:\Perry.Mason.S01E01.WEB-DLRip.RGzsRutracker.[Wentworth_Miller].avi
Формат : AVI
Формат/Информация : Audio Video Interleave
Размер файла : 822 Мбайт
Продолжительность : 57 м. 30 с.
Общий поток : 1 998 Кбит/сек
Программа кодирования : VirtualDubMod 1.5.10.3 | www.virtualdub-fr.org || (build 2550/release)
Библиотека кодирования : VirtualDubMod build 2550/release
Видео
Идентификатор : 0
Формат : MPEG-4 Visual
Профиль формата : Advanced [email protected]
Настройки формата : BVOP1
Параметр BVOP формата : 1
Параметр QPel формата : Нет
Параметр GMC формата : Без точки перехода
Параметр матрицы формата : Default (MPEG)
Идентификатор кодека : XVID
Идентификатор кодека/Подсказка : XviD
Продолжительность : 57 м. 30 с.
Битрейт : 1 600 Кбит/сек
Ширина : 704 пикселя
Высота : 352 пикселя
Соотношение сторон : 2,000
Частота кадров : 23,976 (24000/1001) кадра/сек
Цветовое пространство : YUV
Субдискретизация насыщенности : 4:2:0
Битовая глубина : 8 бит
Тип развёртки : Прогрессивная
Метод сжатия : С потерями
Бит/(Пиксели*Кадры) : 0.269
Размер потока : 658 Мбайт (80%)
Библиотека кодирования : XviD 67
Аудио #1
Идентификатор : 1
Формат : AC-3
Формат/Информация : Audio Coding 3
Коммерческое название : Dolby Digital
Идентификатор кодека : 2000
Продолжительность : 57 м. 30 с.
Вид битрейта : Постоянный
Битрейт : 192 Кбит/сек
Каналы : 2 канала
Channel layout : L R
Частота : 48,0 КГц
Частота кадров : 31,250 кадров/сек (1536 SPF)
Метод сжатия : С потерями
Размер потока : 79,0 Мбайт (10%)
Выравнивание : Разделение по промежуткам
Продолжительность промежутка : 42 мс. (1,00 видеокадр)
Время предзагрузки промежутка : 500 мс.
Service kind : Complete Main
Аудио #2
Идентификатор : 2
Формат : AC-3
Формат/Информация : Audio Coding 3
Коммерческое название : Dolby Digital
Идентификатор кодека : 2000
Продолжительность : 57 м. 30 с.
Вид битрейта : Постоянный
Битрейт : 192 Кбит/сек
Каналы : 2 канала
Channel layout : L R
Частота : 48,0 КГц
Частота кадров : 31,250 кадров/сек (1536 SPF)
Метод сжатия : С потерями
Размер потока : 79,0 Мбайт (10%)
Выравнивание : Разделение по промежуткам
Продолжительность промежутка : 42 мс. (1,00 видеокадр)
Время предзагрузки промежутка : 500 мс.
Service kind : Complete Main
-

Скриншоты

-Релиз группы:


Display posts:    

Current time is: 20-Sep 04:25

All times are UTC ± 0


You cannot post new topics in this forum
You cannot reply to topics in this forum
You cannot edit your posts in this forum
You cannot delete your posts in this forum
You cannot vote in polls in this forum
You cannot attach files in this forum
You cannot download files in this forum

!ATTENTION!
The site does not give electronic versions of products, and is engaged only in a collecting and cataloguing of the references sent and published at a forum by our readers. If you are the legal owner of any submitted material and do not wish that the reference to it was in our catalogue, contact us and we shall immediately remove her. Files for an exchange on tracker are given by users of a site, and the administration does not bear the responsibility for their maintenance. The request to not fill in the files protected by copyrights, and also files of the illegal maintenance!