Ивановский Торрент трекер
Яндекс.Погода
 

[Quote]
HUNTER

Огонек-Огниво
Страна: Россия
Жанр: мультфильм
Продолжительность: 01:28:04
Год выпуска: 2020
Перевод: Не требуется
Русские субтитры: нет-Режиссёр: Константин Щекин
Роли озвучивали: Наталья Терешкова, Эдгард Запашный, Пётр Коврижных, Ирина Яковлева, Сергей Бурунов, Юрий Аскаров, Александр Олешко, Алексей Елистратов, Никита Прозоровский, Олег Есенин-Описание: История начинается с доброго, но бедного Гончара, который однажды находит Огниво — магический артефакт, делающий его владельца богатым, но взамен насылающий смертельное проклятье. Спасти Гончара может только самоотверженность главной героини — девушка по имени Огонёк. Она, не раздумывая, бросается на выручку друга, помогая ему понять, что любовь и честный труд важнее денег и власти.

Сэмпл
Релиз от: ExKinoRay-Качество: WEB-DLRip
Формат: AVI
Видео: 720x400 (16:9), 25 fps, XviD ~ 2029 Кbps avg, 0.282 bit/pixel
Аудио: AC3, 48 kHz, 2 ch, ~192.00 kbps avg
Субтитры: Нет

Подробные технические данные

Общее
Полное имя : E:\Torrents\Files\Огниво.2020.ExKinoRay.avi
Формат : AVI
Формат/Информация : Audio Video Interleave
Размер файла : 1,37 Гбайт
Продолжительность : 1 ч. 28 м.
Общий поток : 2 231 Кбит/сек
Программа кодирования : VirtualDubMod 1.5.10.3 | www.virtualdub-fr.org || (build 2550/release)
Библиотека кодирования : VirtualDubMod build 2550/release
Видео
Идентификатор : 0
Формат : MPEG-4 Visual
Профиль формата : Advanced [email protected]
Настройки формата : BVOP1 / Custom Matrix
Параметр BVOP формата : 1
Параметр QPel формата : Нет
Параметр GMC формата : Без точки перехода
Параметр матрицы формата : Выборочная
Идентификатор кодека : XVID
Идентификатор кодека/Подсказка : XviD
Продолжительность : 1 ч. 28 м.
Битрейт : 2 029 Кбит/сек
Ширина : 720 пикселей
Высота : 400 пикселей
Соотношение сторон : 16:9
Частота кадров : 25,000 кадров/сек
Цветовое пространство : YUV
Субдискретизация насыщенности : 4:2:0
Битовая глубина : 8 бит
Тип развёртки : Прогрессивная
Метод сжатия : С потерями
Бит/(Пиксели*Кадры) : 0.282
Размер потока : 1,25 Гбайт (91%)
Библиотека кодирования : XviD 73
Аудио
Идентификатор : 1
Формат : AC-3
Формат/Информация : Audio Coding 3
Коммерческое название : Dolby Digital
Идентификатор кодека : 2000
Продолжительность : 1 ч. 28 м.
Вид битрейта : Постоянный
Битрейт : 192 Кбит/сек
Каналы : 2 канала
Channel layout : L R
Частота : 48,0 КГц
Частота кадров : 31,250 кадров/сек (1536 SPF)
Метод сжатия : С потерями
Размер потока : 121 Мбайт (9%)
Выравнивание : Разделение по промежуткам
Продолжительность промежутка : 40 мс. (1,00 видеокадр)
Время предзагрузки промежутка : 500 мс.
Service kind : Complete Main

Скриншоты



Display posts:    

Current time is: 01-Oct 13:57

All times are UTC ± 0


You cannot post new topics in this forum
You cannot reply to topics in this forum
You cannot edit your posts in this forum
You cannot delete your posts in this forum
You cannot vote in polls in this forum
You cannot attach files in this forum
You cannot download files in this forum

!ATTENTION!
The site does not give electronic versions of products, and is engaged only in a collecting and cataloguing of the references sent and published at a forum by our readers. If you are the legal owner of any submitted material and do not wish that the reference to it was in our catalogue, contact us and we shall immediately remove her. Files for an exchange on tracker are given by users of a site, and the administration does not bear the responsibility for their maintenance. The request to not fill in the files protected by copyrights, and also files of the illegal maintenance!