Ивановский Торрент трекер
Яндекс.Погода
 

[Quote]
HUNTER

Нарцисс и Златоуст / Narziss und Goldmund
-
Страна: Германия
Жанр: Драма
Год выпуска: 2020
Продолжительность: 01:58:16-Перевод: Профессиональный (многоголосый закадровый) | (iTunes)
Cубтитры: Немецкие (Full)
Оригинальная аудиодорожка: Немецкий-Режиссёр: Штефан Руцовицки / Stefan Ruzowitzky
В ролях: Яннис Нивёнер, Сабин Тамбреа, Генриетта Конфуриус, Лукаш Бех, Роксана Дюран, Георг Фридрих, Samuel Girardi, Михаэль Гланшних, Маттиас Хабих, Андре Хеннике
Описание: Позднее Средневековье. История двух гениальных друзей-послушников из уединенного германского монастыря, идущих к духовному просветлению и совершенству в искусстве различными путями.- -Тип релиза: BDRemux 1080p
Контейнер: MKV-Видео: MPEG-4 AVC Video 29997 kbps 1080p / 23,976 fps / 16:9 / High Profile 4.1
Аудио 1: Русский | AC-3, 6 ch, 384 Kbps, 48.0 kHz
Аудио 2: Немецкий | DTS-HD MA, 6 ch, 1794 Kbps, 48.0 kHz, 16-bit (DTS Core: 5.1 / 48 kHz / 1509 kbps / 16-bit)
Формат субтитров: softsub (SRT)-

MediaInfo

Код:
General
Unique ID : 190233004092220872497150887695175684037 (0x8F1D8B3CFA45E1B652E8801236108FC5)
Complete name : /Volumes/Promise Pegasus/Narziss.und.Goldmund.BDRemux.1080p.pk.mkv
Format : Matroska
Format version : Version 4
File size : 26.4 GiB
Duration : 1 h 58 min
Overall bit rate mode : Variable
Overall bit rate : 31.9 Mb/s
Movie name : Narziss und Goldmund BDRemux 1080p pk
Encoded date : UTC 2020-10-15 13:48:04
Writing application : mkvmerge v51.0.0 ('I Wish') 64-bit
Writing library : libebml v1.4.0 + libmatroska v1.6.2
Video
ID : 1
Format : AVC
Format/Info : Advanced Video Codec
Format profile : [email protected]
Format settings : CABAC / 4 Ref Frames
Format settings, CABAC : Yes
Format settings, Reference frames : 4 frames
Codec ID : V_MPEG4/ISO/AVC
Duration : 1 h 58 min
Bit rate mode : Variable
Bit rate : 29.7 Mb/s
Maximum bit rate : 33.0 Mb/s
Width : 1 920 pixels
Height : 1 080 pixels
Display aspect ratio : 16:9
Frame rate mode : Constant
Frame rate : 23.976 (24000/1001) FPS
Color space : YUV
Chroma subsampling : 4:2:0
Bit depth : 8 bits
Scan type : Progressive
Bits/(Pixel*Frame) : 0.598
Stream size : 24.6 GiB (93%)
Language : German
Default : Yes
Forced : No
Audio #1
ID : 2
Format : AC-3
Format/Info : Audio Coding 3
Commercial name : Dolby Digital
Codec ID : A_AC3
Duration : 1 h 58 min
Bit rate mode : Constant
Bit rate : 384 kb/s
Channel(s) : 6 channels
Channel layout : L R C LFE Ls Rs
Sampling rate : 48.0 kHz
Frame rate : 31.250 FPS (1536 SPF)
Compression mode : Lossy
Stream size : 325 MiB (1%)
Title : Russian MVO iTunes
Language : Russian
Service kind : Complete Main
Default : Yes
Forced : No
Audio #2
ID : 3
Format : DTS XLL
Format/Info : Digital Theater Systems
Commercial name : DTS-HD Master Audio
Codec ID : A_DTS
Duration : 1 h 58 min
Bit rate mode : Variable
Bit rate : 1 794 kb/s
Channel(s) : 6 channels
Channel layout : C L R Ls Rs LFE
Sampling rate : 48.0 kHz
Frame rate : 93.750 FPS (512 SPF)
Bit depth : 16 bits
Compression mode : Lossless
Stream size : 1.48 GiB (6%)
Title : German Original
Language : German
Default : No
Forced : No
Text
ID : 4
Format : UTF-8
Codec ID : S_TEXT/UTF8
Codec ID/Info : UTF-8 Plain Text
Duration : 1 h 56 min
Bit rate : 37 b/s
Count of elements : 1046
Stream size : 32.1 KiB (0%)
Title : German full
Language : German
Default : No
Forced : No
Menu
00:00:00.000 : en:Chapter 01
00:06:25.718 : en:Chapter 02
00:13:53.582 : en:Chapter 03
00:20:02.492 : en:Chapter 04
00:27:51.086 : en:Chapter 05
00:33:02.230 : en:Chapter 06
00:41:12.511 : en:Chapter 07
00:47:23.048 : en:Chapter 08
00:58:00.518 : en:Chapter 09
01:06:43.791 : en:Chapter 10
01:14:07.860 : en:Chapter 11
01:18:57.816 : en:Chapter 12
01:28:05.238 : en:Chapter 13
01:34:22.782 : en:Chapter 14
01:40:05.082 : en:Chapter 15
01:50:28.163 : en:Chapter 16

Скриншоты



Display posts:    

Current time is: 31-Oct 01:45

All times are UTC ± 0


You cannot post new topics in this forum
You cannot reply to topics in this forum
You cannot edit your posts in this forum
You cannot delete your posts in this forum
You cannot vote in polls in this forum
You cannot attach files in this forum
You cannot download files in this forum

!ATTENTION!
The site does not give electronic versions of products, and is engaged only in a collecting and cataloguing of the references sent and published at a forum by our readers. If you are the legal owner of any submitted material and do not wish that the reference to it was in our catalogue, contact us and we shall immediately remove her. Files for an exchange on tracker are given by users of a site, and the administration does not bear the responsibility for their maintenance. The request to not fill in the files protected by copyrights, and also files of the illegal maintenance!