Ивановский Торрент трекер
Яндекс.Погода
 

[Quote]
HUNTER

-Мишн Хилл / Mission Hill-The Complete Series
Год выпуска: 24 сентября 1999 года — 14 июля 2002 года
Страна: США
Жанр: Мультсериал, ситком, для взрослых
Продолжительность: 21 мин (серия)
Режиссёр: Лорен МакМаллэн, Майк Ким, Кристиан РоманОписание:
«Мишн Хилл» (англ. Mission Hill, ранее известный как «The Downtowners») — американский мультипликационный сериал, впервые вышедший в эфир в 1999 году в телесети The WB Television Network. Хотя планировались 18 эпизодов, но выпущено было лишь 13 и показ сериала был отменён после трансляции 6 из них. После выхода в эфир первых двух эпизодов телесетью был сделан перерыв в их регулярных показах из-за низкого рейтинга мультсериала. Летом 2000 года сериал продолжили показывать, но после дополнительно 4 эпизодов он был снят с показа. Сериал смог стать культовым благодаря повтору всех 13 эпизодов телеканалом Teletoon в блоке «Teletoon Unleashed», программном блоке позднего ночного телевещания телеканалов Cartoon Network, Adult Swim и в блоке Too Funny To Sleep ночного вещания телеканала TBS. Мультсериал ранее был известен как «The Downtowners» и его переименованию поспособствовал выпускаемый MTV другой сериал с названием «Downtown».
Аудиодорожка 01: AC3 | 48khz | 2ch | 192kb/s Профессиональный (многоголосый закадровый) (2x2)
Аудиодорожка 02: AC3 | 48khz | 2ch | 192kb/s Оригинал (english)
Аудиодорожка 03: AC3 | 48khz | 2ch | 192kb/s Комментарии Серии 1, 5, 9, 13
Разбивка на главы : Есть
Субтитры: английские, французские, испанские
Качество: DVD-Remux
Формат: MKV
Видео: MPEG-2 Video | NTSC | 4:3 | 720x480 | 29.970 fps | 5000 Kbps
Аудио: AC3-

Наличие серий в раздаче


01. Pilot (The Douchebag Aspect)
02. Andy Joins The PTA (Or Great Sexpectations)
03. Kevin's Problem (Or Porno For Pyro)
04. Andy Vs. The Real World (Or The Big-Ass Viacom Lawsuit)
05. Andy And Kevin Make A Friend (Or One Bang For Two Brothers)
06. Andy Gets A Promotion (Or How To Get Head In Business Without Really Trying)
07. Kevin Vs. The SAT (Or Nocturnal Admissions)
08. Unemployment Part 1 (Or Brother's Big Boner)
09. Unemployment Part 2 (Or Theory Of The Leisure Ass)
10. Kevin Finds Love (Or Hot For Weirdie)
11. Stories Of Hope And Forgiveness (Or Day Of The Jackass)
12. Happy Birthday, Kevin (Or Happy Birthday, Douchebag)
13. Plan 9 From Mission Hill (Or I Married A Gay Man From Outer Space)

Media Info

General
Общее
Уникальный идентификатор : 264772188807706131678483000439871500931 (0xC73144C8A4A4419A93927469E59DF283)
Полное имя : D:\Ремуксы\Mission Hill (1999-2002) DVD-Remux\01. Pilot (The Douchebag Aspect).mkv
Формат : Matroska
Версия формата : Version 4
Размер файла : 903 Мбайт
Продолжительность : 22 м. 36 с.
Режим общего битрейта : Переменный
Общий поток : 5 588 Кбит/сек
Дата кодирования : UTC 2020-10-13 12:47:29
Программа кодирования : mkvmerge v51.0.0 ('I Wish') 64-bit
Библиотека кодирования : libebml v1.4.0 + libmatroska v1.6.2
Видео
Идентификатор : 1
Формат : MPEG Video
Версия формата : Version 2
Профиль формата : [email protected]
Настройки формата : CustomMatrix / BVOP
Параметр BVOP формата : Да
Параметр матрицы формата : Выборочная
Параметр GOP формата : Variable
Структура изображения : Frame
Идентификатор кодека : V_MPEG2
Идентификатор кодека/Информация : MPEG 1 or 2 Video
Продолжительность : 22 м. 36 с.
Вид битрейта : Переменный
Битрейт : 5 000 Кбит/сек
Максимальный битрейт : 9 800 Кбит/сек
Ширина : 720 пикселей
Высота : 480 пикселей
Соотношение сторон : 4:3
Режим частоты кадров : Постоянный
Частота кадров : 29,970 (30000/1001) кадров/сек
Стандарт вещания : NTSC
Цветовое пространство : YUV
Субдискретизация насыщенности : 4:2:0
Битовая глубина : 8 бит
Тип развёртки : Чересстрочная
Порядок развёртки : Верхнее поле первое
Метод сжатия : С потерями
Бит/(Пиксели*Кадры) : 0.483
Временной код первого кадра : 00:59:59:00
Оригинал временного кода : Group of pictures header
Размер потока : 808 Мбайт (89%)
Язык : English
Default : Нет
Forced : Нет
Аудио #1
Идентификатор : 2
Формат : AC-3
Формат/Информация : Audio Coding 3
Коммерческое название : Dolby Digital
Идентификатор кодека : A_AC3
Продолжительность : 22 м. 36 с.
Вид битрейта : Постоянный
Битрейт : 192 Кбит/сек
Каналы : 2 канала
Channel layout : L R
Частота : 48,0 КГц
Частота кадров : 31,250 кадров/сек (1536 SPF)
Метод сжатия : С потерями
Размер потока : 31,0 Мбайт (3%)
Заголовок : MVO (2x2)
Язык : Russian
Service kind : Complete Main
Default : Да
Forced : Нет
Аудио #2
Идентификатор : 3
Формат : AC-3
Формат/Информация : Audio Coding 3
Коммерческое название : Dolby Digital
Идентификатор кодека : A_AC3
Продолжительность : 22 м. 36 с.
Вид битрейта : Постоянный
Битрейт : 192 Кбит/сек
Каналы : 2 канала
Channel layout : L R
Частота : 48,0 КГц
Частота кадров : 31,250 кадров/сек (1536 SPF)
Метод сжатия : С потерями
Размер потока : 31,0 Мбайт (3%)
Язык : English
Service kind : Complete Main
Default : Нет
Forced : Нет
Аудио #3
Идентификатор : 4
Формат : AC-3
Формат/Информация : Audio Coding 3
Коммерческое название : Dolby Digital
Идентификатор кодека : A_AC3
Продолжительность : 22 м. 36 с.
Вид битрейта : Постоянный
Битрейт : 192 Кбит/сек
Каналы : 2 канала
Channel layout : L R
Частота : 48,0 КГц
Частота кадров : 31,250 кадров/сек (1536 SPF)
Метод сжатия : С потерями
Размер потока : 31,0 Мбайт (3%)
Заголовок : Commentary
Язык : English
Service kind : Complete Main
Default : Нет
Forced : Нет
Текст #1
Идентификатор : 5
Формат : UTF-8
Идентификатор кодека : S_TEXT/UTF8
Идентификатор кодека/Информация : UTF-8 Plain Text
Продолжительность : 21 м. 42 с.
Битрейт : 88 бит/сек
Count of elements : 353
Размер потока : 14,1 Кбайт (0%)
Язык : English
Default : Нет
Forced : Нет
Текст #2
Идентификатор : 6
Формат : VobSub
Режим смешивания : zlib
Идентификатор кодека : S_VOBSUB
Идентификатор кодека/Информация : Picture based subtitle format used on DVDs
Продолжительность : 21 м. 42 с.
Битрейт : 5 885 бит/сек
Count of elements : 353
Размер потока : 936 Кбайт (0%)
Язык : English
Default : Нет
Forced : Нет
Текст #3
Идентификатор : 7
Формат : VobSub
Режим смешивания : zlib
Идентификатор кодека : S_VOBSUB
Идентификатор кодека/Информация : Picture based subtitle format used on DVDs
Продолжительность : 21 м. 49 с.
Битрейт : 5 614 бит/сек
Count of elements : 358
Размер потока : 897 Кбайт (0%)
Язык : French
Default : Нет
Forced : Нет
Текст #4
Идентификатор : 8
Формат : VobSub
Режим смешивания : zlib
Идентификатор кодека : S_VOBSUB
Идентификатор кодека/Информация : Picture based subtitle format used on DVDs
Продолжительность : 22 м. 29 с.
Битрейт : 5 696 бит/сек
Count of elements : 362
Размер потока : 938 Кбайт (0%)
Язык : Spanish
Default : Нет
Forced : Нет
Меню
00:00:00.000 : en:Chapter 01
00:07:22.909 : en:Chapter 02
00:14:16.722 : en:Chapter 03
00:21:55.881 : en:Chapter 04

Скриншоты

- Другие раздачи


Display posts:    

Current time is: 23-Oct 08:21

All times are UTC ± 0


You cannot post new topics in this forum
You cannot reply to topics in this forum
You cannot edit your posts in this forum
You cannot delete your posts in this forum
You cannot vote in polls in this forum
You cannot attach files in this forum
You cannot download files in this forum

!ATTENTION!
The site does not give electronic versions of products, and is engaged only in a collecting and cataloguing of the references sent and published at a forum by our readers. If you are the legal owner of any submitted material and do not wish that the reference to it was in our catalogue, contact us and we shall immediately remove her. Files for an exchange on tracker are given by users of a site, and the administration does not bear the responsibility for their maintenance. The request to not fill in the files protected by copyrights, and also files of the illegal maintenance!